2 сезон

iTunes

MVO

1

2 сезон

iTunes

iTunes

1 сезон

RePack

30

Ultimate

ВАЖНО

ИГРА 18+

pack

RePack

MK11
pack

Легкие деньги

RePack

jed

RePack

fifa19

RePack

RDR2

RePack

NEED FOR SPEED™ PAYBACK

4 сезон

9 сезон

Бесстыжие 9 сезон

Все сериалы

все сериалы на PB.wtf

RePack

FAR CRY 5

Anonymous, доброй ночи, мы не успеваем собрать деньги на оплату серверов за декабрь и январь, помогите нам пожалуйста в это трудное время. В качестве благодарности мы отключим Вам всю рекламу на сайте (укажите свой ник в строку Ваше имя)!

×
  
Magnet ссылка

Нагиев - это моя работа [2017 г., Документальный, биография, HDTVRip, Русский] R.G.Resident piratbit.org

Скачать  

09-04-2017 13:02 Нагиев - это моя работа Скачать торрент  

Нагиев - это моя работа
Год выпуска: 2017
Жанр: Документальный, биография
Продолжительность: 00:49:58
Язык: Русский

В ролях: Дмитрий Нагиев

Описание: 4 апреля Дмитрию Нагиеву исполнилось 50 лет. На протяжении 5 лет съёмочная группа по крупинкам собирала документальный 50-тиминутный фильм про ведущего самых рейтинговых программ, актера популярных ситкомов, российского секс-символа. Мальчик для битья и издевок одноклассников. Студент театрального, у которого первое время ровным счетом ничего не получалось. Начинающий актер, чье лицо в 23 года исказил паралич лицевого нерва. Сколько в его жизни было борьбы с обстоятельствами, и конечно, с самим собой, прежде чем он стал тем Нагиевым, которого мы привыкли видеть на экране?

Качество: HDTVRip [благодарю за исходник 1080i нашего релизера White Smoke]
Формат: AVI
Видео кодек: XviD
Аудио кодек: AC3
Видео: 720x400 (1.80:1), 25 fps, XviD build 65 ~1146 kbps avg, 0.16 bit/pixel
Аудио#1: 48 kHz, AC3 Dolby Digital, 3/2 (L,C,R,l,r) + LFE ch, ~384.00 kbps avg
Релиз от: ruslanishe
General
Nagiev.eto.moya.rabota.XviD.2017.HDTVRip.R.G.Resident.avi
Format : AVI
Format/Info : Audio Video Interleave
File size : 550 MiB
Duration : 49mn 58s
Overall bit rate : 1 540 Kbps
Director : ruslanishe
Writing application : VirtualDubMod 1.5.10.3 | www.virtualdub-fr.org || (build 2550/release)
Copyright : R.G.Resident

Video
ID : 0
Format : MPEG-4 Visual
Format profile : Advanced Simple@L5
Format settings, BVOP : 2
Format settings, QPel : No
Format settings, GMC : No warppoints
Format settings, Matrix : Custom
Codec ID : XVID
Codec ID/Hint : XviD
Duration : 49mn 58s
Bit rate : 1 146 Kbps
Width : 720 pixels
Height : 400 pixels
Display aspect ratio : 16:9
Frame rate : 25.000 fps
Color space : YUV
Chroma subsampling : 4:2:0
Bit depth : 8 bits
Scan type : Progressive
Compression mode : Lossy
Bits/(Pixel*Frame) : 0.159
Stream size : 410 MiB (74%)
Writing library : XviD 65

Audio
ID : 1
Format : AC-3
Format/Info : Audio Coding 3
Mode extension : CM (complete main)
Format settings, Endianness : Big
Codec ID : 2000
Duration : 49mn 58s
Bit rate mode : Constant
Bit rate : 384 Kbps
Channel(s) : 6 channels
Channel positions : Front: L C R, Side: L R, LFE
Sampling rate : 48.0 KHz
Bit depth : 16 bits
Compression mode : Lossy
Stream size : 137 MiB (25%)
Alignment : Split accross interleaves
Interleave, duration : 40 ms (1.00 video frame)
Interleave, preload duration : 500 ms
piratbit.org



Скачать
Чтобы иметь возможность скачивать с Торрент Трекера, нужно Зарегистрироваться

Как скачивать  ·  Рейтинг и ограничения

28-11-2019 20:33  

Отключить всю рекламу на сайте

09-04-2017 15:32 Нагиев - это моя работа Скачать торрент  

Задовpiratbit.org



09-04-2017 17:01 Нагиев - это моя работа Скачать торрент  

Во-первых, с полтинником тебя, Дима! У тебя было много ролей - как хороших так и не очень. И ты не самый мой любимый актер. Но я с уважением отношусь к тому, что ты не халтуришь, что ты вживаешься в роль так как это делают лучшие актеры в мире. Для тех кто не в курсе, Дмитрий - самый востребованный и высокооплачиваемый актер и ведущий в нашей стране. Здоровья тебе и твоей семье, удачи, хороших ролей!piratbit.org



    Дорогой пользователь! Огромная просьба, поблагодарите релизера, оцените раздачу и оставьте свои комментарий, если Вы скачали Нагиев - это моя работа через торрент бесплатно! Внесите свою лепту в развитие PiratBit!
    Комментировать посты могут только пользователи прошедшие не сложную регистрацию
    Показать сообщения:    

    Нагиев - это моя работа через торрент
    Скачать бесплатно Нагиев - это моя работа
    Нагиев - это моя работа скачать торрент
    Нагиев - это моя работа смотреть онлайн
    Cкачать фильм Нагиев - это моя работа бесплатно
    Нагиев - это моя работа скачать торрент в хорошем качестве
    Нагиев - это моя работа смотреть онлайн бесплатно в хорошем качестве


    Вы не можете начинать темы
    Вы не можете отвечать на сообщения
    Вы не можете редактировать свои сообщения
    Вы не можете удалять свои сообщения
    Вы не можете голосовать в опросах
    Вы не можете прикреплять файлы к сообщениям
    Вы не можете скачивать файлы