1 сезон

3 сезон

iTunes

1

iTunes

DUB Netflix

iTunes

13

1 сезон

RePack

30

Deluxe

pack

Легкие деньги

ВАЖНО

ИГРА 18+

pack

RePack

MK11

RePack

jed

RePack

fifa19

RePack

RDR2

RePack

NEED FOR SPEED™ PAYBACK

4 сезон

9 сезон

Бесстыжие 9 сезон

Все сериалы

все сериалы на PB.wtf

RePack

FAR CRY 5

Anonymous, добрый день, мы не успеваем до 1 числа собрать деньги на оплату серверов, помогите нам пожалуйста в это трудное время. В качестве благодарности мы отключим Вам всю рекламу на сайте (укажите свой ник в строку Ваше имя)!

×
  
Magnet ссылка

Родители / Foraeldre (Кристиан Тафдруп) [2016 г., драма, детектив, WEB-DLRip, Любительский (многоголосый) (GreenРай Studio)] piratbit.org

Родители через торрент piratbit.org

Размер: 1.47 GB | Добавлен: 4 года 2 мес. назад | Торрент скачан:131 раз
Скачать  

10-04-2017 04:56 Родители Скачать торрент  

Родители / Foraeldre
Год выпуска: 2016
Страна: Дания
Жанр: драма, детектив
Продолжительность: 01:26:14
Перевод: Любительский (многоголосый) (GreenРай Studio)
Субтитры: нет

Режиссер: Кристиан Тафдруп



В ролях: Сёрен Маллинг, Бодиль Йоргенсен, Эллиот Кроссет Хове, Мири Анн Бойшель, Антон Хоник, Эмилия Императоре Бьорнвад, Кристан Тафдруп

Описание: Кьелль и Вибеке живут спокойной и размеренной жизнью вот уже многие годы, а их сын Эсбен достиг того возраста, когда пора начинать самостоятельную жизнь. Привыкшие, что сын всегда рядом, родители не могут ничего с собой поделать — они скучают, поэтому Кьелль, желая устроить сюрприз для жены, находит старую квартиру, в которой они провели молодость, и предлагает Вибеке поселиться там — ближе к сыну, который уже съехал от них. Но не только это заставило Кьелля вернуться в старую квартиру...

Доп. информация: Присутствуют вставки голосовой и текстовой рекламы!

Качество: WEB-DLRip
Формат: AVI
Видео кодек: XviD
Аудио кодек: AC3
Видео: XviD, 720x304 (2.35:1), 25.000 fps, 2 299 Kbps (0.420 bit/pixel)
Аудио: MPEG Audio, 48.0 KHz, 2 ch, 128 Kbps




General
Complete name : H:\релизы.торрентфайл\Roditeli.2016.P.WEB-DL.1400MB_2.GreenРай Studio..avi
Format : AVI
Format/Info : Audio Video Interleave
File size : 1.47 GiB
Duration : 1h 26mn
Overall bit rate : 2 437 Kbps
Writing application : VirtualDubMod 1.5.10.2 (build 2540/release)
Writing library : VirtualDubMod build 2540/release

Video
ID : 0
Format : MPEG-4 Visual
Format profile : Advanced Simple@L5
Format settings, BVOP : 1
Format settings, QPel : No
Format settings, GMC : No warppoints
Format settings, Matrix : Default (H.263)
Codec ID : XVID
Codec ID/Hint : XviD
Duration : 1h 26mn
Bit rate : 2 299 Kbps
Width : 720 pixels
Height : 304 pixels
Display aspect ratio : 2.35:1
Frame rate : 25.000 fps
Color space : YUV
Chroma subsampling : 4:2:0
Bit depth : 8 bits
Scan type : Progressive
Compression mode : Lossy
Bits/(Pixel*Frame) : 0.420
Stream size : 1.39 GiB (94%)
Writing library : XviD 1.2.1 (UTC 2008-12-04)

Audio
ID : 1
Format : MPEG Audio
Codec ID : 55
Codec ID/Hint : MP3
Duration : 1h 26mn
Bit rate : 128 Kbps
Channel(s) : 2 channels
Sampling rate : 48.0 KHz
Compression mode : Lossy
Stream size : 78.9 MiB (5%)
Alignment : Split accross interleaves
Interleave, duration : 40 ms (1.00 video frame)
Interleave, preload duration : 504 ms

piratbit.org



Скачать Родители через торрент http://i91.fastpic.ru/big/2017/0410/b4/e8882fb61cde69525f646807200b29b4.jpg Скачать фильм Родители через торрент бесплантно в хорошем качестве Описание: Кьелль и Вибеке живут спокойной и размеренной жизнью вот уже многие годы, а их сын Эсбен достиг того возраста, когда пора ... 9 10 3
Торрент: Зарегистрирован [2017-04-10 04:56] · скачан: 131 раз
Статус: T временная
Размер: 1.47 GB
Как cкачать? Как скачать Родители через торрент | UTorrent

28-11-2019 20:33  

Отключить всю рекламу на сайте

10-04-2017 05:14 Родители Скачать торрент  

oleg8 писал(а):

Перевод: Профессиональный (многоголосый)(GreenРай Studio)

oleg8, перевод от GreenРай Studio у нас на трекере считается любительским. В описании исправил.

Список студий професcионального закадрового перевода (MVO)piratbit.org



    Дорогой пользователь! Огромная просьба, поблагодарите релизера, оцените раздачу и оставьте свои комментарий, если Вы скачали Родители через торрент бесплатно! Внесите свою лепту в развитие PiratBit!
    Комментировать посты могут только пользователи прошедшие не сложную регистрацию
    Показать сообщения:    

    Родители через торрент
    Скачать бесплатно Родители
    Родители скачать торрент
    Родители смотреть онлайн
    Cкачать фильм Родители бесплатно
    Родители скачать торрент в хорошем качестве
    Родители смотреть онлайн бесплатно в хорошем качестве


    Вы не можете начинать темы
    Вы не можете отвечать на сообщения
    Вы не можете редактировать свои сообщения
    Вы не можете удалять свои сообщения
    Вы не можете голосовать в опросах
    Вы не можете прикреплять файлы к сообщениям
    Вы можете скачивать файлы