1 сезон

3 сезон

iTunes

1

iTunes

DUB Netflix

iTunes

13

1 сезон

RePack

30

Deluxe

pack

Легкие деньги

ВАЖНО

ИГРА 18+

pack

RePack

MK11

RePack

jed

RePack

fifa19

RePack

RDR2

RePack

NEED FOR SPEED™ PAYBACK

4 сезон

9 сезон

Бесстыжие 9 сезон

Все сериалы

все сериалы на PB.wtf

RePack

FAR CRY 5

Anonymous, добрый день, мы не успеваем до 1 числа собрать деньги на оплату серверов, помогите нам пожалуйста в это трудное время. В качестве благодарности мы отключим Вам всю рекламу на сайте (укажите свой ник в строку Ваше имя)!

×
  
Magnet ссылка

Скрытые фигуры / Hidden Figures (Тед Мелфи) [2016 г., Драма, BDRip, Дубляж iTunes] piratbit.org

Скрытые фигуры через торрент piratbit.org

Размер: 1.46 GB | Добавлен: 4 года 2 мес. назад | Торрент скачан:99 раз
Скачать  

11-04-2017 22:12 Скрытые фигуры Скачать торрент  

Скрытые фигуры / Hidden Figures
Год выпуска: 2016
Страна: США
Жанр: Драма
Продолжительность: 02:06:43
Перевод: Дубляж iTunes
Субтитры: Русские форсированные (отдельно)

Режиссер: Тед Мелфи

rating

В ролях: Тараджи П. Хенсон, Октавия Спенсер, Жанель Монэ, Кевин Костнер, Кирстен Данст, Джим Парсонс, Махершала Али, Элдис Ходж, Глен Пауэлл, Кимберли Куинн

Описание: Команда афро-американок проводит для НАСА ряд математических вычислений, необходимых для запуска первой космической миссии.

Качество: BDRip
Формат: AVI
Видео кодек: XviD
Аудио кодек: AC3
Видео: XviD, 720x304, 23.976 fps, 1448 kbps
Аудио: AC3, 2 ch, 192Kbps ,48.0 KHz




General
Complete name : H:\релизы.торрентфайл\Hidden.Figures.2016.BDRip.1.46Gb.MegaPeer\Hidden.Figures.2016.BDRip.1.46Gb.MegaPeer.avi
Format : AVI
Format/Info : Audio Video Interleave
File size : 1.46 GiB
Duration : 2h 6mn
Overall bit rate : 1 648 Kbps

Video
ID : 0
Format : MPEG-4 Visual
Format profile : Advanced Simple@L5
Format settings, BVOP : 1
Format settings, QPel : No
Format settings, GMC : No warppoints
Format settings, Matrix : Custom
Codec ID : XVID
Codec ID/Hint : XviD
Duration : 2h 6mn
Bit rate : 1 449 Kbps
Width : 720 pixels
Height : 304 pixels
Display aspect ratio : 2.35:1
Frame rate : 23.976 fps
Color space : YUV
Chroma subsampling : 4:2:0
Bit depth : 8 bits
Scan type : Progressive
Compression mode : Lossy
Bits/(Pixel*Frame) : 0.276
Stream size : 1.28 GiB (88%)
Writing library : XviD 73

Audio
ID : 1
Format : AC-3
Format/Info : Audio Coding 3
Mode extension : CM (complete main)
Format settings, Endianness : Big
Codec ID : 2000
Duration : 2h 6mn
Bit rate mode : Constant
Bit rate : 192 Kbps
Channel(s) : 2 channels
Channel positions : Front: L R
Sampling rate : 48.0 KHz
Bit depth : 16 bits
Compression mode : Lossy
Stream size : 174 MiB (12%)
Alignment : Aligned on interleaves
Interleave, duration : 64 ms (1.53 video frames)
Interleave, preload duration : 192 ms
Title : iTunes

piratbit.org



Скачать Скрытые фигуры через торрент http://i91.fastpic.ru/big/2017/0411/64/06901b2ae47d35046cd3c09427bf9b64.jpeg Скачать фильм Скрытые фигуры через торрент бесплантно в хорошем качестве Описание: Команда афро-американок проводит для НАСА ряд математических вычислений, необходимых для запуска первой космической ... 10 10 5
Торрент: Зарегистрирован [2017-04-11 22:12] · скачан: 99 раз
Статус: √ проверено
Размер: 1.46 GB
Как cкачать? Как скачать Скрытые фигуры через торрент | UTorrent

% Раздел Тема Автор DL S | L
Фильмы 2016 [DVDrip, WEB-DLRip, HDrip] (DUB, MVO) [ 2.18 GB ] Скрытые фигуры / Hidden Figures [2016 биография история BDRip] - [] Twi7ter Скачать
1 | 0
Фильмы 2016 [DVDrip, WEB-DLRip, HDrip] (DUB, MVO) [ 1.46 GB ] Скрытые фигуры / Hidden Figures [2016 биография история BDRip] - [] Twi7ter Скачать
1 | 0
Фильмы 2016 [DVDrip, WEB-DLRip, HDrip] (DUB, MVO) [ 1.45 GB ] Скрытые фигуры / Hidden Figures [2016 HDRip-AVC ] - ExKinoRay Enigma2010 Скачать
1 | 0
R.G. Resident & PiratVoice - Фильмы, Видео [ 2.29 GB ] Скрытые фигуры / Hidden Figures [2016 биография история BDRip-AVC ] - schultz Скачать
1 | 0

28-11-2019 20:33  

Отключить всю рекламу на сайте

11-04-2017 22:34 Скрытые фигуры Скачать торрент  

я та не догонял че в южном парке девченок высмеивают и как там телка картмана решала задачку спомощью смайлов в марс го piratbit.org



    Дорогой пользователь! Огромная просьба, поблагодарите релизера, оцените раздачу и оставьте свои комментарий, если Вы скачали Скрытые фигуры через торрент бесплатно! Внесите свою лепту в развитие PiratBit!
    Комментировать посты могут только пользователи прошедшие не сложную регистрацию
    Показать сообщения:    

    Скрытые фигуры через торрент
    Скачать бесплатно Скрытые фигуры
    Скрытые фигуры скачать торрент
    Скрытые фигуры смотреть онлайн
    Cкачать фильм Скрытые фигуры бесплатно
    Скрытые фигуры скачать торрент в хорошем качестве
    Скрытые фигуры смотреть онлайн бесплатно в хорошем качестве


    Вы не можете начинать темы
    Вы не можете отвечать на сообщения
    Вы не можете редактировать свои сообщения
    Вы не можете удалять свои сообщения
    Вы не можете голосовать в опросах
    Вы не можете прикреплять файлы к сообщениям
    Вы можете скачивать файлы