1 сезон

3 сезон

iTunes

1

iTunes

DUB Netflix

iTunes

13

1 сезон

RePack

30

Deluxe

pack

Легкие деньги

ВАЖНО

ИГРА 18+

pack

RePack

MK11

RePack

jed

RePack

fifa19

RePack

RDR2

RePack

NEED FOR SPEED™ PAYBACK

4 сезон

9 сезон

Бесстыжие 9 сезон

Все сериалы

все сериалы на PB.wtf

RePack

FAR CRY 5

Anonymous, добрый день, мы не успеваем до 1 числа собрать деньги на оплату серверов, помогите нам пожалуйста в это трудное время. В качестве благодарности мы отключим Вам всю рекламу на сайте (укажите свой ник в строку Ваше имя)!

×
  
Magnet ссылка

Средний человек / Middle Man (Нед Краули) [2016 г., Триллер, драма, комедия, криминал, WEB-DLRip, Любительский (многоголосый)[Синема УС]] piratbit.org

Скачать  

12-04-2017 04:11 Средний человек Скачать торрент  

Средний человек / Middle Man
Год выпуска: 2016
Страна: США
Жанр: Триллер, драма, комедия, криминал
Продолжительность: 01:45:52
Перевод: Любительский (многоголосый)[Синема УС]
Субтитры: нет

Режиссер: Нед Краули

rating

В ролях: Джим О’Хейр, Эндрю Дж. Уэст, Джош МакДермитт, Энн Дудек, Трейси Уолтер, Роберт Катрини, Barbo K. Adler, Жослин Андерсон, Chairman Barnes, T'Shaun Barrett

Описание: Когда унылый и несмешной комик по дороге в Вегас на пробы к легендарному Монте Гаю подбирает подозрительного автостопщика, он, сам того не ведая, ввязывается в кровавую резню в маленьком городке посреди пустыни. Но это приводит к совершенно неожиданным последствиям - у него наконец-то получается шутить.

Доп. информация: есть реклама.

Качество: WEB-DLRip
Формат: AVI
Видео кодек: XviD
Аудио кодек: AC3
Видео: XviD,1645 Kbit/s, 720x304,23.976 fps
Аудио#1: AC3, 2 ch, 192 kbps,48.0 KHz



General
Complete name : H:\релизы.торрентфайл\Middle.Man.2016.P.WEB-DLRip.14OOMB.avi
Format : AVI
Format/Info : Audio Video Interleave
File size : 1.37 GiB
Duration : 1h 45mn
Overall bit rate : 1 847 Kbps
Writing application : VirtualDubMod 1.5.10.2 (build 2540/release)
Writing library : VirtualDubMod build 2540/release

Video
ID : 0
Format : MPEG-4 Visual
Format profile : Advanced Simple@L5
Format settings, BVOP : 2
Format settings, QPel : No
Format settings, GMC : No warppoints
Format settings, Matrix : Default (MPEG)
Codec ID : XVID
Codec ID/Hint : XviD
Duration : 1h 45mn
Bit rate : 1 646 Kbps
Width : 720 pixels
Height : 304 pixels
Display aspect ratio : 2.35:1
Frame rate : 23.976 fps
Color space : YUV
Chroma subsampling : 4:2:0
Bit depth : 8 bits
Scan type : Progressive
Compression mode : Lossy
Bits/(Pixel*Frame) : 0.314
Stream size : 1.22 GiB (89%)
Writing library : XviD 1.2.1 (UTC 2008-12-04)

Audio
ID : 1
Format : AC-3
Format/Info : Audio Coding 3
Mode extension : CM (complete main)
Format settings, Endianness : Big
Codec ID : 2000
Duration : 1h 45mn
Bit rate mode : Constant
Bit rate : 192 Kbps
Channel(s) : 2 channels
Channel positions : Front: L R
Sampling rate : 48.0 KHz
Bit depth : 16 bits
Compression mode : Lossy
Stream size : 145 MiB (10%)
Alignment : Split accross interleaves
Interleave, duration : 42 ms (1.00 video frame)
Interleave, preload duration : 500 ms

piratbit.org



28-11-2019 20:33  

Отключить всю рекламу на сайте

    Дорогой пользователь! Огромная просьба, поблагодарите релизера, оцените раздачу и оставьте свои комментарий, если Вы скачали Средний человек через торрент бесплатно! Внесите свою лепту в развитие PiratBit!
    Комментировать посты могут только пользователи прошедшие не сложную регистрацию
    Показать сообщения:    

    Средний человек через торрент
    Скачать бесплатно Средний человек
    Средний человек скачать торрент
    Средний человек смотреть онлайн
    Cкачать фильм Средний человек бесплатно
    Средний человек скачать торрент в хорошем качестве
    Средний человек смотреть онлайн бесплатно в хорошем качестве


    Вы не можете начинать темы
    Вы не можете отвечать на сообщения
    Вы не можете редактировать свои сообщения
    Вы не можете удалять свои сообщения
    Вы не можете голосовать в опросах
    Вы не можете прикреплять файлы к сообщениям
    Вы можете скачивать файлы