1 сезон

3 сезон

iTunes

1

iTunes

DUB Netflix

iTunes

13

1 сезон

RePack

30

Deluxe

pack

Легкие деньги

ВАЖНО

ИГРА 18+

pack

RePack

MK11

RePack

jed

RePack

fifa19

RePack

RDR2

RePack

NEED FOR SPEED™ PAYBACK

4 сезон

9 сезон

Бесстыжие 9 сезон

Все сериалы

все сериалы на PB.wtf

RePack

FAR CRY 5

Anonymous, добрый вечер, мы не успеваем до 1 числа собрать деньги на оплату серверов, помогите нам пожалуйста в это трудное время. В качестве благодарности мы отключим Вам всю рекламу на сайте (укажите свой ник в строку Ваше имя)!

×
  
Magnet ссылка

Скрытые фигуры / Hidden Figures (Тед Мелфи) [2016 г., Драма, HDRip-AVC, Дубляж Лицензия] - ExKinoRay piratbit.org

Скрытые фигуры через торрент piratbit.org

Размер: 1.45 GB | Добавлен: 4 года 1 мес. назад | Торрент скачан:225 раз
Скачать  

12-04-2017 04:29 Скрытые фигуры Скачать торрент  

Информация о фильме
Название: Скрытые фигуры
Оригинальное название: Hidden Figures
Год выпуска: 2016
Выпущено: США, Chernin Entertainment, Fox 2000 Pictures, Levantine Films
Продолжительность: 02:08:13
Жанр: Драма
Перевод: Дублированный | Лицензия
Режиссер: Тед Мелфи
В ролях: Тараджи П. Хенсон, Октавия Спенсер, Жанель Монэ, Кевин Костнер, Кирстен Данст, Джим Парсонс, Махершала Али, Элдис Ходж, Глен Пауэлл, Кимберли Куинн

Описание: Команда афро-американок проводит для НАСА ряд математических вычислений, необходимых для запуска первой космической миссии.

rating

Файл
Качество: HDRip (AVC)
Видео: MPEG-4 AVC, 1187 kbps, 720x302 (2.40:1), 23.976 fps, 0,228 bpp
Аудио: 48 kHz, AC3 Dolby Digital, 3/2 (L,C,R,l,r) + LFE ch, ~448.00 kbps avg
Субтитры: Русские (форсированные и полные)
General
Unique ID : 253939547033208702555622673063312640330 (0xBF0AFA4F1ABFF4C6BA8F4EDFF680494A)
Complete name : D:\Hidden.Figures.2016.D.HDRip.AVC.ExKinoRay.mkv
Format : Matroska
Format version : Version 2
File size : 1.45 GiB
Duration : 2 h 6 min
Overall bit rate : 1 635 kb/s
Movie name : Hidden Figures 2016 from ExKinoRay
Encoded date : UTC 2017-05-12 02:52:54
Writing application : mkvmerge v5.8.0 ('No Sleep / Pillow') built on Sep 2 2012 15:37:04
Writing library : libebml v1.2.3 + libmatroska v1.3.0

Video
ID : 1
Format : AVC
Format/Info : Advanced Video Codec
Format profile : High@L4.1
Format settings, CABAC : Yes
Format settings, ReFrames : 10 frames
Codec ID : V_MPEG4/ISO/AVC
Duration : 2 h 6 min
Bit rate : 1 187 kb/s
Width : 720 pixels
Height : 302 pixels
Display aspect ratio : 2.40:1
Frame rate mode : Constant
Frame rate : 23.976 (24000/1001) FPS
Color space : YUV
Chroma subsampling : 4:2:0
Bit depth : 8 bits
Scan type : Progressive
Bits/(Pixel*Frame) : 0.228
Stream size : 1.02 GiB (71%)
Title : Enigma
Writing library : x264 core 144 r2525 40bb568
Encoding settings : cabac=1 / ref=10 / deblock=1:-3:-3 / analyse=0x3:0x113 / me=umh / subme=10 / psy=1 / psy_rd=1.00:0.03 / mixed_ref=1 / me_range=32 / chroma_me=1 / trellis=2 / 8x8dct=1 / cqm=0 / deadzone=21,11 / fast_pskip=1 / chroma_qp_offset=-3 / threads=12 / lookahead_threads=2 / sliced_threads=0 / nr=0 / decimate=0 / interlaced=0 / bluray_compat=0 / constrained_intra=0 / bframes=10 / b_pyramid=2 / b_adapt=2 / b_bias=0 / direct=3 / weightb=1 / open_gop=0 / weightp=2 / keyint=240 / keyint_min=23 / scenecut=40 / intra_refresh=0 / rc_lookahead=40 / rc=2pass / mbtree=0 / bitrate=1187 / ratetol=1.0 / qcomp=0.60 / qpmin=0 / qpmax=51 / qpstep=4 / cplxblur=20.0 / qblur=0.5 / vbv_maxrate=50000 / vbv_bufsize=62500 / nal_hrd=none / filler=0 / ip_ratio=1.40 / pb_ratio=1.30 / aq=1:1.00
Default : Yes
Forced : No
Color range : Limited
Color primaries : BT.709
Transfer characteristics : BT.709
Matrix coefficients : BT.709

Audio
ID : 2
Format : AC-3
Format/Info : Audio Coding 3
Mode extension : CM (complete main)
Format settings, Endianness : Big
Codec ID : A_AC3
Duration : 2 h 6 min
Bit rate mode : Constant
Bit rate : 448 kb/s
Channel(s) : 6 channels
Channel positions : Front: L C R, Side: L R, LFE
Sampling rate : 48.0 kHz
Frame rate : 31.250 FPS (1536 spf)
Compression mode : Lossy
Stream size : 406 MiB (27%)
Title : Dub (Лицензия)
Language : Russian
Default : Yes
Forced : No

Text #1
ID : 3
Format : UTF-8
Codec ID : S_TEXT/UTF8
Codec ID/Info : UTF-8 Plain Text
Title : Forced
Language : Russian
Default : Yes
Forced : No

Text #2
ID : 4
Format : UTF-8
Codec ID : S_TEXT/UTF8
Codec ID/Info : UTF-8 Plain Text
Title : Full
Language : Russian
Default : No
Forced : No

Menu
00:00:00.000 : en:00:00:00.000
00:03:13.360 : en:00:03:13.360
00:08:13.535 : en:00:08:13.535
00:12:01.721 : en:00:12:01.721
00:16:32.241 : en:00:16:32.241
00:21:06.682 : en:00:21:06.682
00:23:53.682 : en:00:23:53.682
00:26:59.451 : en:00:26:59.451
00:32:18.520 : en:00:32:18.520
00:37:37.005 : en:00:37:37.005
00:41:36.577 : en:00:41:36.577
00:46:08.474 : en:00:46:08.474
00:49:30.467 : en:00:49:30.467
00:56:11.743 : en:00:56:11.743
01:00:02.599 : en:01:00:02.599
01:03:27.971 : en:01:03:27.971
01:08:43.328 : en:01:08:43.328
01:15:03.624 : en:01:15:03.624
01:19:05.991 : en:01:19:05.991
01:22:17.432 : en:01:22:17.432
01:26:50.330 : en:01:26:50.330
01:32:27.709 : en:01:32:27.709
01:35:19.088 : en:01:35:19.088
01:40:41.285 : en:01:40:41.285
01:44:42.860 : en:01:44:42.860
01:49:35.194 : en:01:49:35.194
01:54:38.830 : en:01:54:38.830
01:59:47.263 : en:01:59:47.263
Релиз от:

Автор релиза: piratbit.org



Скачать Скрытые фигуры через торрент http://i91.fastpic.ru/big/2017/0411/64/06901b2ae47d35046cd3c09427bf9b64.jpeg Скачать фильм Скрытые фигуры через торрент бесплантно в хорошем качестве Описание: Команда афро-американок проводит для НАСА ряд математических вычислений, необходимых для запуска первой космической миссии. ... 6.8 10 11
Info! Золотая раздача, скачанное не засчитывается.
Торрент: Зарегистрирован [2017-05-12 04:06] · скачан: 225 раз
Статус: √ проверено
Размер: 1.45 GB
Как cкачать? Как скачать Скрытые фигуры через торрент | UTorrent



Последний раз редактировалось: Enigma2010 (2017-05-12 04:06), всего редактировалось 2 раз(а)

28-11-2019 20:33  

Отключить всю рекламу на сайте

12-04-2017 05:39 Скрытые фигуры Скачать торрент  

Всем известно, что именно негры изобрели колесо, построили пирамиды и открыли Америку. Логично что и ракету в космос запустили они. Ну а кто ж еще? Я не расист, но эта "толерантность" переходит все границы. Хорошо что у нас в стране не надо кланяться черной жопе ;)piratbit.org



12-04-2017 05:46 Скрытые фигуры Скачать торрент  

spellscape,
Отлично сказано сэр!)piratbit.org



12-04-2017 06:37 Скрытые фигуры Скачать торрент  

и голубой ...piratbit.org



12-04-2017 07:13 Скрытые фигуры Скачать торрент  

spellscape, не ври,все это сделали украинцы!piratbit.org



12-04-2017 10:00 Скрытые фигуры Скачать торрент  

белая .черная жопа какая разница...piratbit.org



12-04-2017 11:27 Скрытые фигуры Скачать торрент  

kpuctaluk писал(а):

белая .черная жопа какая разница...

черно-белая жопа?)piratbit.org



12-05-2017 06:11 Скрытые фигуры Скачать торрент  

а они что считать умели?piratbit.org



12-05-2017 18:12 Скрытые фигуры Скачать торрент  

Фильм отличный. Смотрится легко.
Для тех кто говорит плохо о толерантности - вы живете в стране где у власти всё время были бандюки - и вы сосёте их поплавок. Так что не вам уж точно говорить о том что толерантность это плохо, потому как все вы - на 100% едорасты.piratbit.org



12-05-2017 23:09 Скрытые фигуры Скачать торрент  

spellscape писал(а):

Всем известно, что именно негры изобрели колесо, построили пирамиды и открыли Америку. Логично что и ракету в космос запустили они. Ну а кто ж еще? Я не расист, но эта "толерантность" переходит все границы. Хорошо что у нас в стране не надо кланяться черной жопе ;)

с языка снял))piratbit.org



12-05-2017 23:10 Скрытые фигуры Скачать торрент  

Тьом4ик писал(а):

Фильм отличный. Смотрится легко.
Для тех кто говорит плохо о толерантности - вы живете в стране где у власти всё время были бандюки - и вы сосёте их поплавок. Так что не вам уж точно говорить о том что толерантность это плохо, потому как все вы - на 100% едорасты.

Ты я так понимаю знаток в подсасывании, да и узнай что слово толерантность обозначает.piratbit.org



13-05-2017 13:18 Скрытые фигуры Скачать торрент  

Раз все говорят про жопу, то в жопу такой фильм, не качать.piratbit.org



    Дорогой пользователь! Огромная просьба, поблагодарите релизера, оцените раздачу и оставьте свои комментарий, если Вы скачали Скрытые фигуры через торрент бесплатно! Внесите свою лепту в развитие PiratBit!
    Комментировать посты могут только пользователи прошедшие не сложную регистрацию
    Показать сообщения:    

    Скрытые фигуры через торрент
    Скачать бесплатно Скрытые фигуры
    Скрытые фигуры скачать торрент
    Скрытые фигуры смотреть онлайн
    Cкачать фильм Скрытые фигуры бесплатно
    Скрытые фигуры скачать торрент в хорошем качестве
    Скрытые фигуры смотреть онлайн бесплатно в хорошем качестве


    Вы не можете начинать темы
    Вы не можете отвечать на сообщения
    Вы не можете редактировать свои сообщения
    Вы не можете удалять свои сообщения
    Вы не можете голосовать в опросах
    Вы не можете прикреплять файлы к сообщениям
    Вы можете скачивать файлы