1 сезон

3 сезон

iTunes

1

iTunes

DUB Netflix

iTunes

13

1 сезон

RePack

30

Deluxe

pack

Легкие деньги

ВАЖНО

ИГРА 18+

pack

RePack

MK11

RePack

jed

RePack

fifa19

RePack

RDR2

RePack

NEED FOR SPEED™ PAYBACK

4 сезон

9 сезон

Бесстыжие 9 сезон

Все сериалы

все сериалы на PB.wtf

RePack

FAR CRY 5

Anonymous, добрый вечер, мы не успеваем до 1 числа собрать деньги на оплату серверов, помогите нам пожалуйста в это трудное время. В качестве благодарности мы отключим Вам всю рекламу на сайте (укажите свой ник в строку Ваше имя)!

×
  
Magnet ссылка

Великая стена / The Great Wall (Чжан Имоу) [2016, фэнтези, боевик, триллер, приключения, WEB-DLRip-AVC] DUB [iTunes] piratbit.org

Великая стена через торрент piratbit.org

Размер: 1.58 GB | Добавлен: 4 года 2 мес. назад | Торрент скачан:2044 раза
Скачать  

13-04-2017 11:55 Великая стена Скачать торрент  

Великая стена / The Great Wall
Год выпуска: 2016
Страна: Китай, США
Жанр: фэнтези, боевик, триллер, приключения
Продолжительность: 01:43:03
Перевод: Дубляж - [iTunes]
Субтитры: отсутствуют

Режиссер: Чжан Имоу

rating

В ролях:

Мэтт Дэймон, Цзин Тянь, Уиллем Дефо, Энди Лау, Педро Паскаль, Чжан Ханьюй, Лухан, Кенни Линь, Эдди Пэн, Хуан Сюань

Описание:

Великую стену воздвигли, чтобы оградить Поднебесную от любых угроз, но с таким врагом не сталкивались даже самые отважные ее защитники. Если вторжение не остановить — мир будет уничтожен.

Качество: WEB-DLRip-AVC
Формат: MKV
Видео кодек: H.264
Аудио кодек: AC3

Видео: 1008x420 (2.40:1), 23.976 fps, AVC MPEG-4 (H.264), High@L4.1 ~1763 kbps, 0.174 bit/pixel
Аудио#1: 48 kHz, AC3 Dolby Digital, 6 ch, ~384 kbps
скриншот   скриншот   скриншот   скриншот  

Format : Matroska
Format version : Version 4 / Version 2
File size : 1.58 GiB
Duration : 1 h 43 min
Overall bit rate : 2 190 kb/s
Movie name : Великая стена / The Great Wall (2016) :: AFM ::
Encoded date : UTC 2017-04-13 09:51:02
Writing application : mkvmerge v8.3.0 ('Over the Horizon') 32bit
Writing library : libebml v1.3.1 + libmatroska v1.4.2

Video
ID : 1
Format : AVC
Format/Info : Advanced Video Codec
Format profile : High@L4.1
Format settings, CABAC : Yes
Format settings, ReFrames : 10 frames
Codec ID : V_MPEG4/ISO/AVC
Duration : 1 h 43 min
Bit rate : 1 763 kb/s
Width : 1 008 pixels
Height : 420 pixels
Display aspect ratio : 2.40:1
Frame rate mode : Constant
Frame rate : 23.976 (24000/1001) FPS
Color space : YUV
Chroma subsampling : 4:2:0
Bit depth : 8 bits
Scan type : Progressive
Bits/(Pixel*Frame) : 0.174
Stream size : 1.27 GiB (80%)
Title : WEB-DLRip by AFM
Writing library : x264 core 150 r2773+45 df9a66c 7mod [8-bit@all X86_64]
Encoding settings : cabac=1 / ref=10 / deblock=1:-2:-1 / analyse=0x3:0x113 / me=umh / subme=10 / psy=1 / fade_compensate=0.00 / psy_rd=1.00:0.00 / mixed_ref=1 / me_range=32 / chroma_me=0 / trellis=2 / 8x8dct=1 / cqm=0 / deadzone=21,11 / fast_pskip=0 / chroma_qp_offset=-2 / threads=6 / lookahead_threads=1 / sliced_threads=0 / nr=0 / decimate=1 / interlaced=0 / bluray_compat=0 / constrained_intra=0 / fgo=0 / bframes=10 / b_pyramid=2 / b_adapt=2 / b_bias=0 / direct=1 / weightb=1 / open_gop=0 / weightp=2 / keyint=240 / keyint_min=23 / scenecut=40 / intra_refresh=0 / rc_lookahead=60 / rc=crf / mbtree=0 / crf=18.8000 / qcomp=0.65 / qpmin=0:0:0 / qpmax=69:69:69 / qpstep=4 / vbv_maxrate=50000 / vbv_bufsize=62500 / crf_max=0.0 / nal_hrd=none / filler=0 / ip_ratio=1.35 / pb_ratio=1.30 / aq=4:0.90 / aq-sensitivity=10.00 / aq-factor=1.00:1.00:1.00 / aq2=0 / aq3=0 / zones=136303,148255,q=30
Language : English
Default : Yes
Forced : No

Audio
ID : 2
Format : AC-3
Format/Info : Audio Coding 3
Mode extension : CM (complete main)
Format settings, Endianness : Big
Codec ID : A_AC3
Duration : 1 h 43 min
Bit rate mode : Constant
Bit rate : 384 kb/s
Channel(s) : 6 channels
Channel positions : Front: L C R, Side: L R, LFE
Sampling rate : 48.0 kHz
Frame rate : 31.250 FPS (1536 spf)
Compression mode : Lossy
Stream size : 283 MiB (18%)
Title : Dub. AC3 5.1 ~384 kbps
Language : Russian
Default : Yes
Forced : No

Menu
00:00:00.000 : en:1
00:05:59.359 : en:2
00:11:48.541 : en:3
00:16:54.680 : en:4
00:20:14.254 : en:5
00:25:12.010 : en:6
00:28:56.317 : en:7
00:33:58.744 : en:8
00:37:55.147 : en:9
00:42:43.935 : en:10
00:46:19.942 : en:11
00:50:28.690 : en:12
00:56:47.068 : en:13
01:01:59.046 : en:14
01:07:13.819 : en:15
01:12:09.531 : en:16
01:18:21.861 : en:17
01:23:26.081 : en:18
01:27:27.155 : en:19
01:31:15.383 : en:20

piratbit.org



Скачать Великая стена через торрент http://s019.radikal.ru/i632/1704/54/6adc199cb1b3.jpg Скачать фильм Великая стена через торрент бесплантно в хорошем качестве Описание: Великую стену воздвигли, чтобы оградить Поднебесную от любых угроз, но с таким врагом не сталкивались даже самые отважные ее ... 9.5 10 37
Info! Золотая раздача, скачанное не засчитывается.
Торрент: Зарегистрирован [2017-04-13 11:55] · скачан: 2 044 раз
Статус: √ проверено
Размер: 1.58 GB
Как cкачать? Как скачать Великая стена через торрент | UTorrent

% Раздел Тема Автор DL S | L
Ultra HD (UHD: 2K, 4K, 8K) — видео сверхвысокой чёткости [ 57.3 GB ] Великая стена / The Great Wall [2016 UHD BDRemux 2160p] DUB [] + 2xAVO sheker187 Скачать
1 | 0
Ultra HD (UHD: 2K, 4K, 8K) — видео сверхвысокой чёткости [ 24.89 GB ] Великая стена / The Great Wall [2016 UHD BDRip 2160p] [SDR] DUB sheker187 Скачать
1 | 0
Ultra HD (UHD: 2K, 4K, 8K) — видео сверхвысокой чёткости [ 60.03 GB ] Великая стена / The Great Wall [2016 UHD Blu-ray 2160p] [custom] DUB [] bober100 Скачать
1 | 0
Ultra HD (UHD: 2K, 4K, 8K) — видео сверхвысокой чёткости [ 51.08 GB ] Великая стена / The Great Wall [2016 UHD BDRemux 2160p] VO [Е. Солодухин] +DUB [] bober100 Скачать
1 | 0
Фильмы (Blu-ray, BD-Remux, HDDVD) [ 25.36 GB ] Великая стена / The Great Wall [2016 BD Remux 1080p] DUB [] bober100 Скачать
1 | 0
Фильмы (Blu-ray, BD-Remux, HDDVD) [ 41.84 GB ] Великая стена / The Great Wall [2016 Blu-ray CEE 1080p] DUB [] bober100 Скачать
1 | 0
Фильмы [HD 720p, 1080p] (Хороший звук DUB, MVO) [ 6.73 GB ] Великая стена / The Great Wall [2016 BDRip 1080p] potroks Скачать
1 | 0


Последний раз редактировалось: bober100 (2017-04-14 12:02), всего редактировалось 1 раз

28-11-2019 20:33  

Отключить всю рекламу на сайте

13-04-2017 12:29 Великая стена Скачать торрент  

о как.piratbit.org



16-04-2017 17:35 Великая стена Скачать торрент  

Спасибо, глянем.piratbit.org



17-04-2017 16:42 Великая стена Скачать торрент  

у китаяночки доспех стыбряный из скайрима эльфийская броняpiratbit.org



    Дорогой пользователь! Огромная просьба, поблагодарите релизера, оцените раздачу и оставьте свои комментарий, если Вы скачали Великая стена через торрент бесплатно! Внесите свою лепту в развитие PiratBit!
    Комментировать посты могут только пользователи прошедшие не сложную регистрацию
    Показать сообщения:    

    Великая стена через торрент
    Скачать бесплатно Великая стена
    Великая стена скачать торрент
    Великая стена смотреть онлайн
    Cкачать фильм Великая стена бесплатно
    Великая стена скачать торрент в хорошем качестве
    Великая стена смотреть онлайн бесплатно в хорошем качестве


    Вы не можете начинать темы
    Вы не можете отвечать на сообщения
    Вы не можете редактировать свои сообщения
    Вы не можете удалять свои сообщения
    Вы не можете голосовать в опросах
    Вы не можете прикреплять файлы к сообщениям
    Вы можете скачивать файлы