1 сезон

3 сезон

iTunes

1

iTunes

DUB Netflix

iTunes

13

1 сезон

RePack

30

Deluxe

pack

Легкие деньги

ВАЖНО

ИГРА 18+

pack

RePack

MK11

RePack

jed

RePack

fifa19

RePack

RDR2

RePack

NEED FOR SPEED™ PAYBACK

4 сезон

9 сезон

Бесстыжие 9 сезон

Все сериалы

все сериалы на PB.wtf

RePack

FAR CRY 5

Anonymous, добрый день, мы не успеваем до 1 числа собрать деньги на оплату серверов, помогите нам пожалуйста в это трудное время. В качестве благодарности мы отключим Вам всю рекламу на сайте (укажите свой ник в строку Ваше имя)!

×
  
Magnet ссылка

1:54 / 1:54 (Ян Инглэнд) [2016 г., Драма, HDRip, Любительский (многоголосый)](Синема УС) piratbit.org

1:54 через торрент piratbit.org

Размер: 1.37 GB | Добавлен: 4 года 2 мес. назад | Торрент скачан:47 раз
Скачать  

13-04-2017 14:29 1:54 Скачать торрент  

1:54 / 1:54
Год выпуска: 2016
Страна: Канада
Жанр: Драма
Продолжительность: 01:46:43
Перевод: Любительский (многоголосый)(Синема УС)
Субтитры: нет

Режиссер: Ян Инглэнд

Премьера в мире: 24 августа 2016

rating

В ролях: Роберт Нэйлор, Софи Нелисс, Антуан-Оливье Пилон, Лу-Паскаль Тремблай

Описание: Тим, застенчивый 16-летний юноша, наделенный блестящим спортивным талантом. Он подаёт большие надежды, но и находится под давлением, каждый день испытывая свои человеческие пределы, тем самым рискуя сломаться

Доп. информация: Присутствуют вставки голосовой и текстовой рекламы!

Качество: HDRip
Формат: AVI
Видео кодек: XviD
Аудио кодек: AC3
Видео: Xvid, 720x384, ~ 1632 kbps,23,976 fps,0.246 bpp
Аудио#1: AC3, 2 ch, 192 kbps, 48.0 KHz
Релиз от:








Общее
Полное имя : D:\Загрузки uTorrent\1.54.2016.P.HDRip.14OOMB_KOSHARA.avi
Формат : AVI
Формат/Информация : Audio Video Interleave
Размер файла : 1,37 Гбайт
Продолжительность : 1 ч. 46 м.
Общий поток : 1833 Кбит/сек
Программа кодирования : VirtualDubMod 1.5.10.2 (build 2540/release)
Библиотека кодирования : VirtualDubMod build 2540/release

Видео
Идентификатор : 0
Формат : MPEG-4 Visual
Профиль формата : Advanced Simple@L5
Параметр BVOP формата : 2
Параметр QPel формата : Нет
Параметр GMC формата : Без точки перехода
Параметр матрицы формата : Default (MPEG)
Идентификатор кодека : XVID
Идентификатор кодека/Подсказка : XviD
Продолжительность : 1 ч. 46 м.
Битрейт : 1632 Кбит/сек
Ширина : 720 пикселей
Высота : 384 пикселя
Соотношение сторон : 1,85:1
Частота кадров : 23,976 (24000/1001) кадра/сек
Цветовое пространство : YUV
Субдискретизация насыщенности : 4:2:0
Битовая глубина : 8 бит
Тип развёртки : Прогрессивная
Метод сжатия : С потерями
Бит/(Пиксели*Кадры) : 0.246
Размер потока : 1,22 Гбайт (89%)
Библиотека кодирования : XviD 1.2.1 (UTC 2008-12-04)

Аудио
Идентификатор : 1
Формат : AC-3
Формат/Информация : Audio Coding 3
Расширение режима : CM (complete main)
Параметр Endianness формата : Big
Идентификатор кодека : 2000
Продолжительность : 1 ч. 46 м.
Вид битрейта : Постоянный
Битрейт : 192 Кбит/сек
Каналы : 2 канала
Расположение каналов : Front: L R
Частота : 48,0 КГц
Частота кадров : 31,250 кадров/сек (1536 spf)
Битовая глубина : 16 бит
Метод сжатия : С потерями
Размер потока : 147 Мбайт (10%)
Выравнивание : Разделение по промежуткам
Продолжительность промежутка : 42 мс. (1,00 видеокадр)
Время предзагрузки промежутка : 500 мс.

piratbit.org



Скачать 1:54 через торрент https://pic1.kartinco.top/images/11/6xu2f.jpg Скачать фильм 1:54 через торрент бесплантно в хорошем качестве Описание: Тим, застенчивый 16-летний юноша, наделенный блестящим спортивным талантом. Он подаёт большие надежды, но и находится под ... 10 10 3
Торрент: Зарегистрирован [2017-04-13 14:29] · скачан: 47 раз
Статус: T временная
Размер: 1.37 GB
Как cкачать? Как скачать 1:54 через торрент | UTorrent

% Раздел Тема Автор DL S | L
Программы для интернет и сетей [ 58 MB ] Extreme Picture Finder 3.54.1.0 RePack by TryRooM [2021Multi/Ru] nikola120 Скачать
2 | 0
RPG [ 27.49 GB ] Mount & Blade II: Bannerlord [Repack RUS/ENG/ MULTi] - by Chovka Бумер Скачать
3 | 0
Action TPS (3rd Person) [ 98.13 GB ] Grand Theft Auto V [ RUS/ENG/MULTi11] [Rockstar-Rip] от =nemos= Nemos Скачать
56 | 133
WYSIWYG Редакторы для веб-диза [ 412 MB ] Adobe Dreamweaver 2021 21.1.0.15413 RePack by KpoJIuK [2021Multi/Ru] nikola120 Скачать
2 | 0
Другие симуляторы [ 10.06 GB ] Frostpunk + DLC) [ RUS|ENG|MULTi] [GOG] bober100 Скачать
2 | 0
Программы для интернет и сетей [ 44 MB ] Ant Download Manager Pro 2.0.1 Build 75447 RePack by xetrin [2020Multi/Ru] nikola120 Скачать
1 | 0
Windows 7 [ 3.78 GB ] Windows 7 SP1 v.6.1.7601.24540 x86/x64 6in1 v.23 KottoSOFT DToretto777 Скачать
3 | 0

28-11-2019 20:33  

Отключить всю рекламу на сайте

    Дорогой пользователь! Огромная просьба, поблагодарите релизера, оцените раздачу и оставьте свои комментарий, если Вы скачали 1:54 через торрент бесплатно! Внесите свою лепту в развитие PiratBit!
    Комментировать посты могут только пользователи прошедшие не сложную регистрацию
    Показать сообщения:    

    1:54 через торрент
    Скачать бесплатно 1:54
    1:54 скачать торрент
    1:54 смотреть онлайн
    Cкачать фильм 1:54 бесплатно
    1:54 скачать торрент в хорошем качестве
    1:54 смотреть онлайн бесплатно в хорошем качестве


    Вы не можете начинать темы
    Вы не можете отвечать на сообщения
    Вы не можете редактировать свои сообщения
    Вы не можете удалять свои сообщения
    Вы не можете голосовать в опросах
    Вы не можете прикреплять файлы к сообщениям
    Вы можете скачивать файлы