1 сезон

3 сезон

iTunes

1

iTunes

DUB Netflix

iTunes

13

1 сезон

RePack

30

Deluxe

pack

Легкие деньги

ВАЖНО

ИГРА 18+

pack

RePack

MK11

RePack

jed

RePack

fifa19

RePack

RDR2

RePack

NEED FOR SPEED™ PAYBACK

4 сезон

9 сезон

Бесстыжие 9 сезон

Все сериалы

все сериалы на PB.wtf

RePack

FAR CRY 5

Anonymous, добрый день, мы не успеваем до 1 числа собрать деньги на оплату серверов, помогите нам пожалуйста в это трудное время. В качестве благодарности мы отключим Вам всю рекламу на сайте (укажите свой ник в строку Ваше имя)!

×
  
Magnet ссылка

Преместь / Prevenge (Элис Лоу) [2016 г., Ужасы, триллер, драма, комедия, WEB-DLRip, Любительский (многоголосый)](Синема УС) piratbit.org

Преместь через торрент piratbit.org

Размер: 1.36 GB | Добавлен: 4 года 2 мес. назад | Торрент скачан:53 раза
Скачать  

13-04-2017 14:57 Преместь Скачать торрент  

Преместь / Prevenge
Год выпуска: 2016
Страна: Великобритания
Жанр: Ужасы, триллер, драма, комедия
Продолжительность: 01:27:58
Перевод: Любительский (многоголосый)(Синема УС)
Субтитры: нет

Режиссер: Элис Лоу

Премьера в мире: 1 сентября 2016

rating

В ролях: Элис Лоу, Джо Хартли, Джемма Уилан, Кейт Дики, Том Дэвис, Кайван Новак, Грэйс Калдер, Майк Возниак, Эйлин Дейвис, Сара Ди

Описание: Рут — вдова. Также она на восьмом месяце беременности. Руководствуясь идеей, что нужно делать всё, чего хочет от неё будущий ребёнок, женщина начинает убивать.

Доп. информация: Присутствуют вставки голосовой и текстовой рекламы!

Качество: WEB-DLRip
Формат: AVI
Видео кодек: MPEG4
Аудио кодек: AC3
Видео: MPEG4, XviD, 720x304 (2.35:1), 23.976 fps, 1 826 Kbps (0.348 bit/pixel)
Аудио#1: AC-3, 48.0 KHz, 2 ch, 384 Kbps, CBR
Релиз от:








Общее
Полное имя : C:\NNM_2\Преместь\Prevenge 2016 WEB-DLRip.avi
Формат : AVI
Формат/Информация : Audio Video Interleave
Размер файла : 1,36 Гбайт
Продолжительность : 1 ч. 27 м.
Общий поток : 2219 Кбит/сек
Программа кодирования : VirtualDubMod 1.5.10.2 (build 2540/release)
Библиотека кодирования : VirtualDubMod build 2540/release

Видео
Идентификатор : 0
Формат : MPEG-4 Visual
Профиль формата : Advanced Simple@L5
Параметр BVOP формата : 2
Параметр QPel формата : Нет
Параметр GMC формата : Без точки перехода
Параметр матрицы формата : Default (MPEG)
Идентификатор кодека : XVID
Идентификатор кодека/Подсказка : XviD
Продолжительность : 1 ч. 27 м.
Битрейт : 1826 Кбит/сек
Ширина : 720 пикселей
Высота : 304 пикселя
Соотношение сторон : 2,35:1
Частота кадров : 23,976 (24000/1001) кадра/сек
Цветовое пространство : YUV
Субдискретизация насыщенности : 4:2:0
Битовая глубина : 8 бит
Тип развёртки : Прогрессивная
Метод сжатия : С потерями
Бит/(Пиксели*Кадры) : 0.348
Размер потока : 1,12 Гбайт (82%)
Библиотека кодирования : XviD 1.2.1 (UTC 2008-12-04)

Аудио
Идентификатор : 1
Формат : AC-3
Формат/Информация : Audio Coding 3
Расширение режима : CM (complete main)
Параметр Endianness формата : Big
Идентификатор кодека : 2000
Продолжительность : 1 ч. 27 м.
Вид битрейта : Постоянный
Битрейт : 384 Кбит/сек
Каналы : 2 канала
Расположение каналов : Front: L R
Частота : 48,0 КГц
Частота кадров : 31,250 кадров/сек (1536 spf)
Битовая глубина : 16 бит
Метод сжатия : С потерями
Размер потока : 242 Мбайт (17%)
Выравнивание : Разделение по промежуткам
Продолжительность промежутка : 42 мс. (1,00 видеокадр)
Время предзагрузки промежутка : 500 мс.

piratbit.org



Скачать Преместь через торрент https://pic1.kartinco.top/images/11/p7qq8.jpg Скачать фильм Преместь через торрент бесплантно в хорошем качестве Описание: Рут — вдова. Также она на восьмом месяце беременности. Руководствуясь идеей, что нужно делать всё, чего хочет от неё будущий ... 10 10 1
Торрент: Зарегистрирован [2017-04-13 14:57] · скачан: 53 раз
Статус: T временная
Размер: 1.36 GB
Как cкачать? Как скачать Преместь через торрент | UTorrent



Последний раз редактировалось: Dusster (2017-04-14 14:22), всего редактировалось 1 раз

28-11-2019 20:33  

Отключить всю рекламу на сайте

    Дорогой пользователь! Огромная просьба, поблагодарите релизера, оцените раздачу и оставьте свои комментарий, если Вы скачали Преместь через торрент бесплатно! Внесите свою лепту в развитие PiratBit!
    Комментировать посты могут только пользователи прошедшие не сложную регистрацию
    Показать сообщения:    

    Преместь через торрент
    Скачать бесплатно Преместь
    Преместь скачать торрент
    Преместь смотреть онлайн
    Cкачать фильм Преместь бесплатно
    Преместь скачать торрент в хорошем качестве
    Преместь смотреть онлайн бесплатно в хорошем качестве


    Вы не можете начинать темы
    Вы не можете отвечать на сообщения
    Вы не можете редактировать свои сообщения
    Вы не можете удалять свои сообщения
    Вы не можете голосовать в опросах
    Вы не можете прикреплять файлы к сообщениям
    Вы можете скачивать файлы