Доктор Стрэндж

Лицензия

Добыча

MVO

Дом дракона

1 сезон

Тор

Лицензия

Мэверик

Лицензия

Там, где раки поют

MVO

Властелин колец

1 сезон

Ultimate

pack

Рекомендуем

30

Repack

ВАЖНО

ВАЖНО

Ghostwire

RePack

jed

RePack

nioh2

RePack

RDR2

RePack

NEED FOR SPEED™ PAYBACK

RePack

скачать торрент

Кинопоиск HD

Острые козырьки 6 сезон

6 сезон

FAR CRY 6

RePack

скачать торрент

Лицензия

скачать торрент

MVO

1

1 сезон

скачать торрент

1 сезон

скачать торрент

Лицензия

  

Неповторимая весна (Александр Столпер) [1957, СССР, драма, SATRip от AVP Studio]

Неповторимая весна через торрент piratbit.org

Размер: 1.09 GB | Добавлен: 5 лет 5 мес. назад | Торрент скачан:23 раза
Смотреть онлайн Неповторимая весна | Скачать   

14-04-2017 09:44 Неповторимая весна Скачать торрент  

Неповторимая весна
Страна: СССР
Производство: Мосфильм

Жанр: драма
Год выпуска: 1957
Продолжительность: 01:27:59

Перевод: Не требуется
Cубтитры: нет
Оригинальная аудиодорожка: русский

Режиссер: Александр Столпер

В ролях:
Евгения Козырева, Изольда Извицкая, Александр Михайлов (II), Иван Дмитриев, Ирина Скобцева, Виктор Шарлахов, Светлана Харитонова, Нина Дорошина, Леонид Пархоменко, Евгений Леонов, Борис Битюков, Тахир Сабиров...
Об актёрах подробней

Описание:
После свадьбы молодые археологи Буровы прибыли на раскопки в пограничный район Средней Азии, где совсем недавно вспыхнула эпидемия чумы. Ряд обстоятельств, на время разлучив молодоженов, послужил веской причиной для того, чтобы мать Ани обратилась за помощью к ее отцу - генералу Новожилову, много лет назад оставившему семью...

Источник: DVB
Качество видео: SATRip
Формат видео: AVI

Видео: 688x512 (4:3), 25 fps, XviD ~ 1572 kbps avg, 0.178 bit/pixel
Аудио: 48 kHz, Dolby Digital AC3 2.0, 192 kbps

Раздача от:
Общее
Полное имя : Nepovtorimaya.vesna.1957.SATRip_[New-team]_by_AVP_Studio.avi
Формат : AVI
Формат/Информация : Audio Video Interleave
Размер файла : 1,09 Гбайт
Продолжительность : 1 ч. 27 м.
Общий поток : 1773 Кбит/сек
Программа кодирования : VirtualDubMod 1.5.10.3 | www.virtualdub-fr.org || (build 2550/release)
Библиотека кодирования : VirtualDubMod build 2550/release

Видео
Идентификатор : 0
Формат : MPEG-4 Visual
Профиль формата : Advanced Simple@L5
Параметр BVOP формата : 1
Параметр QPel формата : Нет
Параметр GMC формата : Без точки перехода
Параметр матрицы формата : Выборочная
Идентификатор кодека : XVID
Идентификатор кодека/Подсказка : XviD
Продолжительность : 1 ч. 27 м.
Битрейт : 1572 Кбит/сек
Ширина : 688 пикселей
Высота : 512 пикселей
Соотношение сторон : 4:3
Частота кадров : 25,000 кадров/сек
Цветовое пространство : YUV
Субдискретизация насыщенности : 4:2:0
Битовая глубина : 8 бит
Тип развёртки : Прогрессивная
Метод сжатия : С потерями
Бит/(Пиксели*Кадры) : 0.178
Размер потока : 989 Мбайт (89%)
Библиотека кодирования : XviD 73

Аудио
Идентификатор : 1
Формат : AC-3
Формат/Информация : Audio Coding 3
Параметр Endianness формата : Big
Идентификатор кодека : 2000
Продолжительность : 1 ч. 27 м.
Вид битрейта : Постоянный
Битрейт : 192 Кбит/сек
Каналы : 2 канала
Расположение каналов : Front: L R
Частота : 48,0 КГц
Частота кадров : 31,250 кадров/сек (1536 spf)
Битовая глубина : 16 бит
Метод сжатия : С потерями
Размер потока : 121 Мбайт (11%)
Выравнивание : Разделение по промежуткам
Продолжительность промежутка : 40 мс. (1,00 видеокадр)
Время предзагрузки промежутка : 500 мс



Скачать Неповторимая весна через торрент http://s016.radikal.ru/i337/1704/4c/061149eb4f11.png Скачать, смотреть онлайн Неповторимая весна бесплантно в хорошем качестве Описание:После свадьбы молодые археологи Буровы прибыли на раскопки в пограничный район Средней Азии, где совсем недавно вспыхнула эпидемия ... 10 10 1
Info! Золотая раздача, скачанное не засчитывается.
Торрент: Зарегистрирован [2017-04-14 09:44] · скачан: 23 раз
Статус: √ проверено
Размер: 1.09 GB
Как cкачать? Как скачать Неповторимая весна через торрент | UTorrent

% Раздел Тема Автор DL S | L
Кино СССР [ 1.09 GB ] Неповторимая весна | | SATRip-AVC от AVP Studio AVP Studio Скачать
1 | 0
Кино СССР [ 745 MB ] Неповторимая весна | | SATRip от AVP Studio AVP Studio Скачать
1 | 0

28-11-2019 20:33  

Отключить вcю реклaмy на сайте

    Дорогой пользователь! Огромная просьба, поблагодарите релизера, оцените раздачу и оставьте свои комментарий, если Вы скачали Неповторимая весна через торрент бесплатно!!
    Комментировать посты могут только пользователи прошедшие не сложную регистрацию
    Показать сообщения:    


    Неповторимая весна через торрент
    Скачать бесплатно Неповторимая весна
    Неповторимая весна скачать торрент
    Неповторимая весна смотреть онлайн
    Cкачать фильм Неповторимая весна бесплатно
    Неповторимая весна скачать торрент в хорошем качестве
    Неповторимая весна смотреть онлайн бесплатно в хорошем качестве
    Вы не можете начинать темы
    Вы не можете отвечать на сообщения
    Вы не можете редактировать свои сообщения
    Вы не можете удалять свои сообщения
    Вы не можете голосовать в опросах
    Вы не можете прикреплять файлы к сообщениям
    Вы можете скачивать файлы