1 сезон

3 сезон

iTunes

1

iTunes

DUB Netflix

iTunes

13

1 сезон

RePack

30

Deluxe

pack

Легкие деньги

ВАЖНО

ИГРА 18+

pack

RePack

MK11

RePack

jed

RePack

fifa19

RePack

RDR2

RePack

NEED FOR SPEED™ PAYBACK

4 сезон

9 сезон

Бесстыжие 9 сезон

Все сериалы

все сериалы на PB.wtf

RePack

FAR CRY 5

Anonymous, доброй ночи, мы не успеваем до 1 числа собрать деньги на оплату серверов, помогите нам пожалуйста в это трудное время. В качестве благодарности мы отключим Вам всю рекламу на сайте (укажите свой ник в строку Ваше имя)!

×
  
Magnet ссылка

Монстр-траки / Monster Trucks (Крис Уэдж) [2016 г., Фантастика, боевик, комедия, семейный, HDRip, Дубляж BD CEE(Лицензия) ] piratbit.org

Монстр-траки через торрент piratbit.org

Размер: 745 MB | Добавлен: 4 года 2 мес. назад | Торрент скачан:35 раз
Скачать  

14-04-2017 11:25 Монстр-траки Скачать торрент  

Монстр-траки / Monster Trucks
Год выпуска: 2016
Страна: США
Жанр: Фантастика, боевик, комедия, семейный
Продолжительность: 01:44:44
Перевод: Дубляж BD CEE (Лицензия )
Субтитры: Русские на надписи (отдельно)

Режиссер: Крис Уэдж

rating

В ролях: Лукас Тилл, Джейн Леви, Томас Леннон, Бэрри Пеппер, Роб Лоу, Дэнни Гловер, Эми Райан, Холт МакКэллани, Фрэнк Уэйли, Алийа О’Брайен

Описание: Старшеклассник Трипп мечтает сбежать из скучного городка, где родился и вырос, и увлеченно собирает монстр-трак из обломков старых авто. И когда происшествие на буровой вышке высвобождает из-под земли удивительное создание, знающее толк в скорости, у Триппа появляется реальный шанс не только наконец-то изменить жизнь, но и обрести настоящего друга... Если, конечно, никто не вмешается.

Качество: HDRip
Формат: AVI
Видео кодек: XviD
Аудио кодек: AC3
Видео: XviD, 688x288, 23.976 fps, 860 kbps
Аудио: MP3, 2 ch, 128 kbps ,48.0 KHz




General
Complete name : H:\релизы.торрентфайл\Monster.Trucks.2016.HDRip.745MB.Dub.MegaPeer\Monster.Trucks.2016.HDRip.745MB.Dub.MegaPeer.avi
Format : AVI
Format/Info : Audio Video Interleave
File size : 745 MiB
Duration : 1h 44mn
Overall bit rate : 995 Kbps

Video
ID : 0
Format : MPEG-4 Visual
Format profile : Advanced Simple@L5
Format settings, BVOP : 1
Format settings, QPel : No
Format settings, GMC : No warppoints
Format settings, Matrix : Custom
Codec ID : XVID
Codec ID/Hint : XviD
Duration : 1h 44mn
Bit rate : 861 Kbps
Width : 688 pixels
Height : 288 pixels
Display aspect ratio : 2.40:1
Frame rate : 23.976 fps
Color space : YUV
Chroma subsampling : 4:2:0
Bit depth : 8 bits
Scan type : Progressive
Compression mode : Lossy
Bits/(Pixel*Frame) : 0.181
Stream size : 645 MiB (87%)
Writing library : XviD 73

Audio
ID : 1
Format : MPEG Audio
Format version : Version 1
Format profile : Layer 3
Mode : Joint stereo
Mode extension : MS Stereo
Codec ID : 55
Codec ID/Hint : MP3
Duration : 1h 44mn
Bit rate mode : Constant
Bit rate : 128 Kbps
Channel(s) : 2 channels
Sampling rate : 48.0 KHz
Compression mode : Lossy
Stream size : 95.9 MiB (13%)
Alignment : Aligned on interleaves
Interleave, duration : 167 ms (4.00 video frames)
Interleave, preload duration : 216 ms
Title : BD CEE
Writing library : LAME3.99r
Encoding settings : -m j -V 4 -q 2 -lowpass 17 -b 128

piratbit.org



Скачать Монстр-траки через торрент http://i90.fastpic.ru/big/2017/0329/03/887720ed460ad4a616582a840fbbc203.jpg Скачать фильм Монстр-траки через торрент бесплантно в хорошем качестве Описание: Старшеклассник Трипп мечтает сбежать из скучного городка, где родился и вырос, и увлеченно собирает монстр-трак из обломков ... 9 10 3
Торрент: Зарегистрирован [2017-04-14 11:25] · скачан: 35 раз
Статус: √ проверено
Размер: 745 MB
Как cкачать? Как скачать Монстр-траки через торрент | UTorrent

% Раздел Тема Автор DL S | L
Фильмы 2016 [DVDrip, WEB-DLRip, HDrip] (DUB, MVO) [ 1.37 GB ] Монстр-траки / Monster Trucks [2016 HDRip] killermax2013 Скачать
1 | 0
Фильмы (Blu-ray, BD-Remux, HDDVD) [ 40.17 GB ] Монстр-траки / Monster Trucks [2016 Blu-Ray 1080p] sheker187 Скачать
1 | 0
Фильмы 2016 [DVDrip, WEB-DLRip, HDrip] (DUB, MVO) [ 2.18 GB ] Монстр-траки / Monster Trucks [2016 BDRip] - [] Twi7ter Скачать
1 | 0
Фильмы 2016 [DVDrip, WEB-DLRip, HDrip] (DUB, MVO) [ 1.46 GB ] Монстр-траки / Monster Trucks [2016 BDRip] - [] Twi7ter Скачать
1 | 0
Фильмы [HD 720p, 1080p] (Хороший звук DUB, MVO) [ 7.16 GB ] Монстр-траки / Monster Trucks [2016 BDRip 1080p] - -Lexx- Скачать
1 | 0
R.G. Resident & PiratVoice - Фильмы, Видео [ 2.31 GB ] Монстр-траки / Monster Trucks [2016 BDRip-AVC ] - schultz Скачать
1 | 0
R.G. Resident & PiratVoice - Фильмы, Видео [ 3.85 GB ] Монстр-траки / Monster Trucks [2016 BDRip 720p ] - schultz Скачать
1 | 0

28-11-2019 20:33  

Отключить всю рекламу на сайте

    Дорогой пользователь! Огромная просьба, поблагодарите релизера, оцените раздачу и оставьте свои комментарий, если Вы скачали Монстр-траки через торрент бесплатно! Внесите свою лепту в развитие PiratBit!
    Комментировать посты могут только пользователи прошедшие не сложную регистрацию
    Показать сообщения:    

    Монстр-траки через торрент
    Скачать бесплатно Монстр-траки
    Монстр-траки скачать торрент
    Монстр-траки смотреть онлайн
    Cкачать фильм Монстр-траки бесплатно
    Монстр-траки скачать торрент в хорошем качестве
    Монстр-траки смотреть онлайн бесплатно в хорошем качестве


    Вы не можете начинать темы
    Вы не можете отвечать на сообщения
    Вы не можете редактировать свои сообщения
    Вы не можете удалять свои сообщения
    Вы не можете голосовать в опросах
    Вы не можете прикреплять файлы к сообщениям
    Вы можете скачивать файлы