Доктор Стрэндж

Лицензия

Добыча

MVO

Дом дракона

1 сезон

Тор

Лицензия

Мэверик

Лицензия

Там, где раки поют

MVO

Властелин колец

1 сезон

Ultimate

pack

Рекомендуем

30

Repack

ВАЖНО

ВАЖНО

Ghostwire

RePack

jed

RePack

nioh2

RePack

RDR2

RePack

NEED FOR SPEED™ PAYBACK

RePack

скачать торрент

Кинопоиск HD

Острые козырьки 6 сезон

6 сезон

FAR CRY 6

RePack

скачать торрент

Лицензия

скачать торрент

MVO

1

1 сезон

скачать торрент

1 сезон

скачать торрент

Лицензия

  

Ночной патруль (Владимир Сухобоков) [1957, СССР, криминал, детектив, SATRip от AVP Studio]

Ночной патруль через торрент piratbit.org

Размер: 744 MB | Добавлен: 5 лет 5 мес. назад | Торрент скачан:17 раз
Смотреть онлайн Ночной патруль | Скачать   

15-04-2017 08:55 Ночной патруль Скачать торрент  

Ночной патруль
Страна: СССР
Производство: Киностудия им. М. Горького

Жанр: криминал, детектив
Год выпуска: 1957
Продолжительность: 01:33:29

Перевод: Не требуется
Cубтитры: нет
Оригинальная аудиодорожка: русский

Режиссер: Владимир Сухобоков

В ролях:
Лев Свердлин, Марк Бернес, Вадим Грачёв, Валентина Ушакова, Владимир Андреев, Евгений Гуров, Юрий Киреев, Евгений Буренков, Григорий Кириллов, Владимир Владиславский, Татьяна Окуневская, Зоя Фёдорова, Степан Бубнов, Сергей Филиппов...
Об актёрах подробней

Описание:
Детектив о работниках советской милиции. После того, как бухгалтер обнаружил в оформлении документов неточность - махинации зам. директора базы, который вместе с директорами магазинов сбывал награбленное, он сообщил об этом зав. базой. Ночью был взломан сейф и похищены документы. Вскоре был убит и бухгалтер. Комиссар милиции Кречетов и лейтенант Касьянов, влюбленный в дочь погибшего, начали розыск, усложнившийся из-за того, что в город вернулся рецидивист Огонек....

Источник: DVB
Качество видео: SATRip
Формат видео: AVI

Видео: 576x432 (4:3), 25 fps, XviD ~ 976 kbps avg, 0.157 bit/pixel
Аудио: 48 kHz, MP3 2.0, 128 kbps

Раздача от:
Общее
Полное имя : Nochnoy.patrul.1957.SATRip-745_[New-team]_by_AVP_Studio.avi
Формат : AVI
Формат/Информация : Audio Video Interleave
Размер файла : 744 Мбайт
Продолжительность : 1 ч. 33 м.
Общий поток : 1113 Кбит/сек
Программа кодирования : VirtualDubMod 1.5.10.3 | www.virtualdub-fr.org || (build 2550/release)
Библиотека кодирования : VirtualDubMod build 2550/release

Видео
Идентификатор : 0
Формат : MPEG-4 Visual
Профиль формата : Advanced Simple@L5
Параметр BVOP формата : 1
Параметр QPel формата : Нет
Параметр GMC формата : Без точки перехода
Параметр матрицы формата : Выборочная
Идентификатор кодека : XVID
Идентификатор кодека/Подсказка : XviD
Продолжительность : 1 ч. 33 м.
Битрейт : 976 Кбит/сек
Ширина : 576 пикселей
Высота : 432 пикселя
Соотношение сторон : 4:3
Частота кадров : 25,000 кадров/сек
Цветовое пространство : YUV
Субдискретизация насыщенности : 4:2:0
Битовая глубина : 8 бит
Тип развёртки : Прогрессивная
Метод сжатия : С потерями
Бит/(Пиксели*Кадры) : 0.157
Размер потока : 652 Мбайт (88%)
Библиотека кодирования : XviD 73

Аудио
Идентификатор : 1
Формат : MPEG Audio
Версия формата : Version 1
Профиль формата : Layer 3
Идентификатор кодека : 55
Идентификатор кодека/Подсказка : MP3
Продолжительность : 1 ч. 33 м.
Вид битрейта : Постоянный
Битрейт : 128 Кбит/сек
Каналы : 2 канала
Частота : 48,0 КГц
Метод сжатия : С потерями
Размер потока : 85,6 Мбайт (11%)
Выравнивание : Соединение по промежуткам
Продолжительность промежутка : 40 мс. (1,00 видеокадр)
Время предзагрузки промежутка : 504 мс.
Библиотека кодирования : LAME3.99r
Настройки программы : -m s -V 4 -q 2 -lowpass 17 -b 128



Скачать Ночной патруль через торрент http://s019.radikal.ru/i640/1704/6d/10ac732b1ac9.png Скачать, смотреть онлайн Ночной патруль бесплантно в хорошем качестве Описание:Детектив о работниках советской милиции. После того, как бухгалтер обнаружил в оформлении документов неточность - махинации зам. ... 10 10 1
Info! Золотая раздача, скачанное не засчитывается.
Торрент: Зарегистрирован [2017-04-15 08:55] · скачан: 17 раз
Статус: √ проверено
Размер: 744 MB
Как cкачать? Как скачать Ночной патруль через торрент | UTorrent

% Раздел Тема Автор DL S | L
Кино СССР [ 1.46 GB ] Ночной патруль | | SATRip-AVC от AVP Studio AVP Studio Скачать
1 | 0
Кино СССР [ 1.09 GB ] Ночной патруль | | SATRip от AVP Studio AVP Studio Скачать
1 | 0

28-11-2019 20:33  

Отключить вcю реклaмy на сайте

    Дорогой пользователь! Огромная просьба, поблагодарите релизера, оцените раздачу и оставьте свои комментарий, если Вы скачали Ночной патруль через торрент бесплатно!!
    Комментировать посты могут только пользователи прошедшие не сложную регистрацию
    Показать сообщения:    


    Ночной патруль через торрент
    Скачать бесплатно Ночной патруль
    Ночной патруль скачать торрент
    Ночной патруль смотреть онлайн
    Cкачать фильм Ночной патруль бесплатно
    Ночной патруль скачать торрент в хорошем качестве
    Ночной патруль смотреть онлайн бесплатно в хорошем качестве
    Вы не можете начинать темы
    Вы не можете отвечать на сообщения
    Вы не можете редактировать свои сообщения
    Вы не можете удалять свои сообщения
    Вы не можете голосовать в опросах
    Вы не можете прикреплять файлы к сообщениям
    Вы можете скачивать файлы