1 сезон

3 сезон

iTunes

1

iTunes

DUB Netflix

iTunes

13

1 сезон

RePack

30

Deluxe

pack

Легкие деньги

ВАЖНО

ИГРА 18+

pack

RePack

MK11

RePack

jed

RePack

fifa19

RePack

RDR2

RePack

NEED FOR SPEED™ PAYBACK

4 сезон

9 сезон

Бесстыжие 9 сезон

Все сериалы

все сериалы на PB.wtf

RePack

FAR CRY 5

Anonymous, добрый день, мы не успеваем до 1 числа собрать деньги на оплату серверов, помогите нам пожалуйста в это трудное время. В качестве благодарности мы отключим Вам всю рекламу на сайте (укажите свой ник в строку Ваше имя)!

×
  
Magnet ссылка

Ограды / Fences (Дензел Вашингтон / Denzel Washington) [2016, США, драма, BDRip-AVC от sokol_ok] [Лицензия] piratbit.org

Ограды через торрент piratbit.org

Раздают: 1 [ 0 KB/s ]
Размер: 1.49 GB | Добавлен: 4 года 2 мес. назад | Торрент скачан:146 раз
Скачать  

15-04-2017 12:36 Ограды Скачать торрент  

Ограды
Fences


Страна: США
Жанр: драма

Год выпуска: 2016
Продолжительность: 02:18:51

Перевод: Профессиональный (полное дублирование) [Blu-ray CEE]
Cубтитры: русские (форсированные, полные)
Оригинальная аудиодорожка: нет

Режиссер: Дензел Вашингтон / Denzel Washington

В ролях: Дензел Вашингтон, Виола Дэвис, Стивен Хендерсон, Йован Адепо, Расселл Хорнсби, Майкелти Уильямсон, Саня Сидни, Кристофер С. Меле, Лесли Бун, Джейсон Силвис, Туссэн Рафаэль Абессоло, Кара Кларк

Описание:
Бывший бейсболист афро-американского происхождения, теперь собирающий мусор с улиц Питтсбурга, изо всех сил старается обеспечить свою семью в Америке 1950-х, где расовый вопрос все еще остается открытым.



Релиз:

Автор рипа: stalkerok

Сэмпл

Качество видео: BDRip-AVC [Fences (2016) Blu-ray CEE 1080p AVC DD5.1 HDCLUB]
Формат видео: MKV
Видео кодек: AVC
Аудио кодек: AC3
Видео: 1147 Кбит/сек, 960x402 (2.40:1), 23,976 кадр/сек, AVC
Аудио: русский, 384 Кбит/сек, 48 КГц, 16 бит, 5.1, AC3
Навигация по главам: есть

x264 [info]: frame I:1405 Avg QP:14.84 size: 63739
x264 [info]: frame P:39016 Avg QP:18.28 size: 14690
x264 [info]: frame B:159327 Avg QP:20.23 size: 3337

Общее
Уникальный идентификатор : 191179370642891936629016434195189848396 (0x8FD3CEB628B1AB1D9E01AEFC2B29D94C)
Полное имя : I:\Fences (2016)\Fences.2016.BDRip-AVC.RUS.stalkerok.new-team.mkv
Формат : Matroska
Версия формата : Version 4 / Version 2
Размер файла : 1,49 Гбайт
Продолжительность : 2 ч. 18 м.
Общий поток : 1533 Кбит/сек
Название фильма : Fences (2016) (Rip by stalkerok)
Дата кодирования : UTC 2017-04-15 12:09:55
Программа кодирования : mkvmerge v8.6.1 ('Flying') 64bit
Библиотека кодирования : libebml v1.3.3 + libmatroska v1.4.4

Видео
Идентификатор : 1
Формат : AVC
Формат/Информация : Advanced Video Codec
Профиль формата : High@L4.1
Параметр CABAC формата : Да
Параметр ReFrames формата : 14 кадров
Идентификатор кодека : V_MPEG4/ISO/AVC
Продолжительность : 2 ч. 18 м.
Битрейт : 1147 Кбит/сек
Ширина : 960 пикселей
Высота : 402 пикселя
Соотношение сторон : 2,40:1
Режим частоты кадров : Постоянный
Частота кадров : 23,976 (24000/1001) кадра/сек
Цветовое пространство : YUV
Субдискретизация насыщенности : 4:2:0
Битовая глубина : 8 бит
Тип развёртки : Прогрессивная
Бит/(Пиксели*Кадры) : 0.124
Размер потока : 1,11 Гбайт (75%)
Заголовок : Fences (2016) (Rip by stalkerok)
Библиотека кодирования : x264 core 148 r2705+54 9f484c1 t_mod_Custom [8-bit@all X86_64]
Настройки программы : cabac=1 / ref=14 / deblock=1:-3:-2 / analyse=0x3:0x133 / me=umh / subme=10 / psy=1 / fade_compensate=0.00 / psy_rd=1.00:0.00 / mixed_ref=1 / me_range=32 / chroma_me=1 / trellis=2 / 8x8dct=1 / cqm=0 / deadzone=21,11 / fast_pskip=0 / chroma_qp_offset=-2 / threads=12 / lookahead_threads=3 / sliced_threads=0 / nr=0 / decimate=0 / interlaced=0 / bluray_compat=0 / constrained_intra=0 / fgo=0 / bframes=14 / b_pyramid=2 / b_adapt=2 / b_bias=0 / direct=3 / weightb=1 / open_gop=0 / weightp=2 / keyint=240 / keyint_min=23 / scenecut=40 / intra_refresh=0 / rc_lookahead=60 / rc=2pass / mbtree=0 / bitrate=1147 / ratetol=1.0 / qcomp=0.65 / qpmin=0:0:0 / qpmax=69:69:69 / qpstep=4 / cplxblur=20.0 / qblur=0.5 / vbv_maxrate=50000 / vbv_bufsize=62500 / nal_hrd=none / filler=0 / ip_ratio=1.40 / pb_ratio=1.30 / aq=3:0.85 / aq-sensitivity=10.00 / aq-factor=1.00:1.00:1.00 / aq2=0 / aq3=0
Default : Да
Forced : Нет

Аудио
Идентификатор : 2
Формат : AC-3
Формат/Информация : Audio Coding 3
Расширение режима : CM (complete main)
Параметр Endianness формата : Big
Идентификатор кодека : A_AC3
Продолжительность : 2 ч. 18 м.
Вид битрейта : Постоянный
Битрейт : 384 Кбит/сек
Каналы : 6 каналов
Расположение каналов : Front: L C R, Side: L R, LFE
Частота : 48,0 КГц
Частота кадров : 31,250 кадров/сек (1536 spf)
Метод сжатия : С потерями
Размер потока : 381 Мбайт (25%)
Язык : Russian
Default : Да
Forced : Нет

Текст #1
Идентификатор : 3
Формат : UTF-8
Идентификатор кодека : S_TEXT/UTF8
Идентификатор кодека/Информация : UTF-8 Plain Text
Продолжительность : 1 ч. 45 м.
Битрейт : 0 бит/сек
Count of elements : 4
Размер потока : 173 байт (0%)
Заголовок : Forced
Язык : Russian
Default : Да
Forced : Нет

Текст #2
Идентификатор : 4
Формат : UTF-8
Идентификатор кодека : S_TEXT/UTF8
Идентификатор кодека/Информация : UTF-8 Plain Text
Продолжительность : 2 ч. 11 м.
Битрейт : 138 бит/сек
Count of elements : 2443
Размер потока : 133 Кбайт (0%)
Язык : Russian
Default : Нет
Forced : Нет

Меню
00:00:00.000 : en:Chapter 1
00:06:38.398 : en:Chapter 2
00:13:45.241 : en:Chapter 3
00:21:06.306 : en:Chapter 4
00:30:06.262 : en:Chapter 5
00:37:17.818 : en:Chapter 6
00:45:10.624 : en:Chapter 7
00:51:49.147 : en:Chapter 8
00:57:56.931 : en:Chapter 9
01:04:59.103 : en:Chapter 10
01:13:11.845 : en:Chapter 11
01:23:34.759 : en:Chapter 12
01:29:57.850 : en:Chapter 13
01:36:18.147 : en:Chapter 14
01:43:13.312 : en:Chapter 15
01:54:28.152 : en:Chapter 16
02:01:40.209 : en:Chapter 17
02:10:13.806 : en:Chapter 18
piratbit.org



Скачать Ограды через торрент http://i72.fastpic.ru/big/2015/0531/46/68ef8a2783b58e5344cc30bbd3f1b046.png Скачать фильм Ограды через торрент бесплантно в хорошем качестве Описание:Бывший бейсболист афро-американского происхождения, теперь собирающий мусор с улиц Питтсбурга, изо всех сил старается обеспечить ... 7.7 10 7
Info! Золотая раздача, скачанное не засчитывается.
Торрент: Зарегистрирован [2017-04-15 12:36] · скачан: 146 раз
Статус: √ проверено
Размер: 1.49 GB
Как cкачать? Как скачать Ограды через торрент | UTorrent

% Раздел Тема Автор DL S | L
Фильмы 2016 [DVDrip, WEB-DLRip, HDrip] (DUB, MVO) [ 2.12 GB ] Ограды / Fences [2016 BDRip / DUB / ] Ворон Скачать
1 | 0
Фильмы [HD 720p, 1080p] (Хороший звук DUB, MVO) [ 12.93 GB ] Ограды / Fences [2016 BDRip 1080p от ExKinoRay / DUB / ] Ворон Скачать
1 | 0
Фильмы 2016 [DVDrip, WEB-DLRip, HDrip] (DUB, MVO) [ 2.91 GB ] Ограды / Fences [2016 BDRip-AVC от sokol_ok] [] sokol_ok Скачать
2 | 0
Фильмы 2016 [DVDrip, WEB-DLRip, HDrip] (DUB, MVO) [ 2.18 GB ] Ограды / Fences [2016 BDRip] - [] Twi7ter Скачать
1 | 0
Фильмы [HD 720p, 1080p] (Хороший звук DUB, MVO) [ 7.76 GB ] Ограды / Fences [2016 BDRip 1080p] DUB [] bober100 Скачать
1 | 0
Фильмы 2016 [DVDrip, WEB-DLRip, HDrip] (DUB, MVO) [ 1.46 GB ] Ограды / Fences [2016 BDRip] - [] Twi7ter Скачать
1 | 0
Фильмы 2016 [DVDrip, WEB-DLRip, HDrip] (DUB, MVO) [ 2.17 GB ] Ограды / Fences [2016 HDRip ""] coc900 Скачать
1 | 0

28-11-2019 20:33  

Отключить всю рекламу на сайте

    Дорогой пользователь! Огромная просьба, поблагодарите релизера, оцените раздачу и оставьте свои комментарий, если Вы скачали Ограды через торрент бесплатно! Внесите свою лепту в развитие PiratBit!
    Комментировать посты могут только пользователи прошедшие не сложную регистрацию
    Показать сообщения:    

    Ограды через торрент
    Скачать бесплатно Ограды
    Ограды скачать торрент
    Ограды смотреть онлайн
    Cкачать фильм Ограды бесплатно
    Ограды скачать торрент в хорошем качестве
    Ограды смотреть онлайн бесплатно в хорошем качестве


    Вы не можете начинать темы
    Вы не можете отвечать на сообщения
    Вы не можете редактировать свои сообщения
    Вы не можете удалять свои сообщения
    Вы не можете голосовать в опросах
    Вы не можете прикреплять файлы к сообщениям
    Вы можете скачивать файлы