2 сезон

iTunes

MVO

1

2 сезон

iTunes

iTunes

1 сезон

RePack

30

Ultimate

ВАЖНО

ИГРА 18+

pack

RePack

MK11
pack

Легкие деньги

RePack

jed

RePack

fifa19

RePack

RDR2

RePack

NEED FOR SPEED™ PAYBACK

4 сезон

9 сезон

Бесстыжие 9 сезон

Все сериалы

все сериалы на PB.wtf

RePack

FAR CRY 5

Anonymous, добрый вечер, мы не успеваем собрать деньги на оплату серверов за декабрь и январь, помогите нам пожалуйста в это трудное время. В качестве благодарности мы отключим Вам всю рекламу на сайте (укажите свой ник в строку Ваше имя)!

×
  
Magnet ссылка

Свято-Данилов мужской монастырь (Юрий Давыдов) [2014 г., Документальный, познавательный, HDTVRip, Русский] R.G.Resident piratbit.org

Скачать  

15-04-2017 17:49 Свято-Данилов мужской монастырь Скачать торрент  

Свято-Данилов мужской монастырь
Год выпуска: 2014
Страна: Россия, RTG Production Studios
Жанр: Документальный, познавательный
Продолжительность: 00:37:52
Перевод: Русский

Режиссер: Юрий Давыдов

Ведущий: Александр Уваров

Описание: На берегу Москвы-реки более 8 веков назад возникло поселение - будущий стольный град Москва. Поселение досталось в наследство младшему сыну великого князя Александра Невского - Даниилу. Ранее не имевшее своего князя, оно было одним из самых слабых и незначительных на Руси. Для укрепления московского княжества и единения людей князь Даниил основал мужской монастырь, ставший первым в российской столице...

Качество: HDTVRip [исходник 1080i]
Формат: AVI
Видео кодек: XviD
Аудио кодек: AC3
Видео: 720x400 (1.80:1), 25 fps, XviD build 65 ~1830 kbps avg, 0.25 bit/pixel
Аудио#1: AC3 Dolby Digital, 2/0 (L,R) ch, ~192.00 kbps avg
Релиз от: ruslanishe
General
Svyato.Danilov.muzhskoy.monastyr.XviD.2014.HDTVRip.R.G.Resident.avi
Format : AVI
Format/Info : Audio Video Interleave
File size : 550 MiB
Duration : 37mn 51s
Overall bit rate : 2 032 Kbps
Director : ruslanishe
Writing application : VirtualDubMod 1.5.10.3 | www.virtualdub-fr.org || (build 2550/release)
Copyright : R.G.Resident

Video
ID : 0
Format : MPEG-4 Visual
Format profile : Advanced Simple@L5
Format settings, BVOP : 2
Format settings, QPel : No
Format settings, GMC : No warppoints
Format settings, Matrix : Custom
Codec ID : XVID
Codec ID/Hint : XviD
Duration : 37mn 51s
Bit rate : 1 830 Kbps
Width : 720 pixels
Height : 400 pixels
Display aspect ratio : 16:9
Frame rate : 25.000 fps
Color space : YUV
Chroma subsampling : 4:2:0
Bit depth : 8 bits
Scan type : Progressive
Compression mode : Lossy
Bits/(Pixel*Frame) : 0.254
Stream size : 496 MiB (90%)
Writing library : XviD 65

Audio
ID : 1
Format : AC-3
Format/Info : Audio Coding 3
Mode extension : CM (complete main)
Format settings, Endianness : Big
Codec ID : 2000
Duration : 37mn 51s
Bit rate mode : Constant
Bit rate : 192 Kbps
Channel(s) : 2 channels
Channel positions : Front: L R
Sampling rate : 48.0 KHz
Bit depth : 16 bits
Compression mode : Lossy
Stream size : 52.0 MiB (9%)
Alignment : Split accross interleaves
Interleave, duration : 40 ms (1.00 video frame)
Interleave, preload duration : 500 ms
piratbit.org



Скачать
Чтобы иметь возможность скачивать с Торрент Трекера, нужно Зарегистрироваться

Как скачивать  ·  Рейтинг и ограничения

28-11-2019 20:33  

Отключить всю рекламу на сайте

    Дорогой пользователь! Огромная просьба, поблагодарите релизера, оцените раздачу и оставьте свои комментарий, если Вы скачали Свято-Данилов мужской монастырь через торрент бесплатно! Внесите свою лепту в развитие PiratBit!
    Комментировать посты могут только пользователи прошедшие не сложную регистрацию
    Показать сообщения:    

    Свято-Данилов мужской монастырь через торрент
    Скачать бесплатно Свято-Данилов мужской монастырь
    Свято-Данилов мужской монастырь скачать торрент
    Свято-Данилов мужской монастырь смотреть онлайн
    Cкачать фильм Свято-Данилов мужской монастырь бесплатно
    Свято-Данилов мужской монастырь скачать торрент в хорошем качестве
    Свято-Данилов мужской монастырь смотреть онлайн бесплатно в хорошем качестве


    Вы не можете начинать темы
    Вы не можете отвечать на сообщения
    Вы не можете редактировать свои сообщения
    Вы не можете удалять свои сообщения
    Вы не можете голосовать в опросах
    Вы не можете прикреплять файлы к сообщениям
    Вы не можете скачивать файлы