2 сезон

iTunes

MVO

1

2 сезон

iTunes

iTunes

1 сезон

RePack

30

Новинка

ВАЖНО

ИГРА 18+

pack

RePack

MK11
pack

Легкие деньги

RePack

jed

RePack

fifa19

RePack

RDR2

RePack

NEED FOR SPEED™ PAYBACK

4 сезон

9 сезон

Бесстыжие 9 сезон

Все сериалы

все сериалы на PB.wtf

RePack

FAR CRY 5

Anonymous, добрый день, мы не успеваем собрать деньги на оплату серверов за декабрь и январь, помогите нам пожалуйста в это трудное время. В качестве благодарности мы отключим Вам всю рекламу на сайте (укажите свой ник в строку Ваше имя)!

×
  
Magnet ссылка

Свято-Юрьев мужской монастырь (Игорь Соколов) [2013 г., Документальный, познавательный, религия, православие, HDTVRip, Русский] R.G.Resident piratbit.org

Скачать  

15-04-2017 18:07 Свято-Юрьев мужской монастырь Скачать торрент  

Свято-Юрьев мужской монастырь
Год выпуска: 2013
Страна: Россия, RTG Production Studios
Жанр: Документальный, познавательный, религия, православие
Продолжительность: 00:26:56
Перевод: Русский

Режиссер: Игорь Соколов

Ведущий: Александр Уваров

Описание: Свято-Юрьев мужской монастырь - один из древнейших монастырей России XII в., расположенный у истоков Волхова, близ озера Ильмень, является частью грандиозной природной панорамы. В прошлом - духовный центр Новгородской республики, южный форпост Великого Новгорода, основанный великим киевским князем Ярославом, при крещении получившим имя Георгий (в честь Георгия Победоносца). Ныне - действующий мужской монастырь Русской Православной Церкви. Находится в 5 км от Великого Новгорода на берегу реки Волхов вблизи озера Ильмень. До 1918 года имел статус 1-классной обители. Главный храм Юрьева монастыря — Георгиевский собор (1119 - 1130 гг.) — удивительно гармоничен, будто высечен из куска белого камня. В нем можно увидеть фрагменты фресковой живописи XII в. В архимандритском корпусе Юрьева монастыря находится Новгородское епархиальное духовное училище. Зрителям предлагается совершить небольшую видеоэкскурсию и узнать для себя немало нового и интересного!

Качество: HDTVRip [исходник 1080i]
Формат: AVI
Видео кодек: XviD
Аудио кодек: AC3
Видео: 720x400 (1.80:1), 25 fps, XviD build 65 ~1615 kbps avg, 0.22 bit/pixel
Аудио#1: 48 kHz, AC3 Dolby Digital, 2/0 (L,R) ch, ~192.00 kbps avg
Релиз от: ruslanishe
General
Svyato.Yurev.muzhskoy.monastyr.XviD.2013.HDTVRip.R.G.Resident.avi
Format : AVI
Format/Info : Audio Video Interleave
File size : 350 MiB
Duration : 26mn 56s
Overall bit rate : 1 817 Kbps
Director : ruslanishe
Writing application : VirtualDubMod 1.5.10.3 | www.virtualdub-fr.org || (build 2550/release)
Copyright : R.G.Resident

Video
ID : 0
Format : MPEG-4 Visual
Format profile : Advanced Simple@L5
Format settings, BVOP : 2
Format settings, QPel : No
Format settings, GMC : No warppoints
Format settings, Matrix : Custom
Codec ID : XVID
Codec ID/Hint : XviD
Duration : 26mn 56s
Bit rate : 1 615 Kbps
Width : 720 pixels
Height : 400 pixels
Display aspect ratio : 16:9
Frame rate : 25.000 fps
Color space : YUV
Chroma subsampling : 4:2:0
Bit depth : 8 bits
Scan type : Progressive
Compression mode : Lossy
Bits/(Pixel*Frame) : 0.224
Stream size : 311 MiB (89%)
Writing library : XviD 65

Audio
ID : 1
Format : AC-3
Format/Info : Audio Coding 3
Mode extension : CM (complete main)
Format settings, Endianness : Big
Codec ID : 2000
Duration : 26mn 56s
Bit rate mode : Constant
Bit rate : 192 Kbps
Channel(s) : 2 channels
Channel positions : Front: L R
Sampling rate : 48.0 KHz
Bit depth : 16 bits
Compression mode : Lossy
Stream size : 37.0 MiB (11%)
Alignment : Split accross interleaves
Interleave, duration : 40 ms (1.00 video frame)
Interleave, preload duration : 500 ms
piratbit.org



Скачать
Чтобы иметь возможность скачивать с Торрент Трекера, нужно Зарегистрироваться

Как скачивать  ·  Рейтинг и ограничения

28-11-2019 20:33  

Отключить всю рекламу на сайте

    Дорогой пользователь! Огромная просьба, поблагодарите релизера, оцените раздачу и оставьте свои комментарий, если Вы скачали Свято-Юрьев мужской монастырь через торрент бесплатно! Внесите свою лепту в развитие PiratBit!
    Комментировать посты могут только пользователи прошедшие не сложную регистрацию
    Показать сообщения:    

    Свято-Юрьев мужской монастырь через торрент
    Скачать бесплатно Свято-Юрьев мужской монастырь
    Свято-Юрьев мужской монастырь скачать торрент
    Свято-Юрьев мужской монастырь смотреть онлайн
    Cкачать фильм Свято-Юрьев мужской монастырь бесплатно
    Свято-Юрьев мужской монастырь скачать торрент в хорошем качестве
    Свято-Юрьев мужской монастырь смотреть онлайн бесплатно в хорошем качестве


    Вы не можете начинать темы
    Вы не можете отвечать на сообщения
    Вы не можете редактировать свои сообщения
    Вы не можете удалять свои сообщения
    Вы не можете голосовать в опросах
    Вы не можете прикреплять файлы к сообщениям
    Вы не можете скачивать файлы