1 сезон

3 сезон

iTunes

1

iTunes

DUB Netflix

iTunes

13

1 сезон

RePack

30

Deluxe

pack

Легкие деньги

ВАЖНО

ИГРА 18+

pack

RePack

MK11

RePack

jed

RePack

fifa19

RePack

RDR2

RePack

NEED FOR SPEED™ PAYBACK

4 сезон

9 сезон

Бесстыжие 9 сезон

Все сериалы

все сериалы на PB.wtf

RePack

FAR CRY 5

Anonymous, доброй ночи, мы не успеваем до 1 числа собрать деньги на оплату серверов, помогите нам пожалуйста в это трудное время. В качестве благодарности мы отключим Вам всю рекламу на сайте (укажите свой ник в строку Ваше имя)!

×
  
Magnet ссылка

Человек с тысячью лиц / El hombre de las mil caras (Альберто Родригес) [2016 г., Триллер, HDRip, Любительский (многоголосый)](GreenРай Studio) piratbit.org

Человек с тысячью лиц через торрент piratbit.org

Размер: 2.04 GB | Добавлен: 4 года 2 мес. назад | Торрент скачан:240 раз
Скачать  

16-04-2017 13:32 Человек с тысячью лиц Скачать торрент  

Человек с тысячью лиц / El hombre de las mil caras
Год выпуска: 2016
Страна: Испания
Жанр: Триллер
Продолжительность: 02:03:12
Перевод: Любительский (многоголосый)(GreenРай Studio)
Субтитры: нет

Режиссер: Альберто Родригес

Премьера в мире: 17 сентября 2016

rating

В ролях: Хосе Коронадо, Эдуард Фернандес, Луис Кальехо, Марта Этура, Джеймс Шоу, Эмилио Гутьеррес Каба, Карлос Сантос, Педро Касабланк, Кристиан Стамм, Филипп Реббо

Описание: История, основанная на реальных событиях, и раскрывающая взаимоотношения бывшего секретного агента Франсиско Паэсы и Луиса Рольдана, бывшего главы Гражданской гвардии. Франсиско Паэса, ответственный за проведение важнейшей операции против ЭТА, оказывается вовлечён в дело о вымогательстве в разгар кризиса с грязной игрой правительства против ЭТА и вынужден бежать из страны. Вернувшись спустя несколько лет, он понимает, что его жизнь разрушена. В данных обстоятельствах его посещает Луис Рольдан со своей женой и предлагает ему миллион долларов, если он поможет сохранить им 1.5 миллиарда песет, незаконно выведенных из государственного бюджета...

Доп. информация: Присутствуют аудио и видео вставки рекламы

Качество: HDRip
Формат: AVI
Видео кодек: XviD
Аудио кодек: AC3
Видео: Xvid, 720x304, ~1968 kbps,23,976 fps,0.375 bpp
Аудио#1: AC3, 2 ch, 384 Kbps,48.0 KHz
Релиз от:








Общее
Полное имя : C:Торренты\Человек с тысячью лиц.2016.HDRip.avi
Формат : AVI
Формат/Информация : Audio Video Interleave
Профиль формата : OpenDML
Размер файла : 2,04 Гбайт
Продолжительность : 2 ч. 3 м.
Общий поток : 2365 Кбит/сек
Программа кодирования : VirtualDubMod 1.5.10.2 (build 2540/release)
Библиотека кодирования : VirtualDubMod build 2540/release

Видео
Идентификатор : 0
Формат : MPEG-4 Visual
Профиль формата : Advanced Simple@L5
Параметр BVOP формата : 2
Параметр QPel формата : Нет
Параметр GMC формата : Без точки перехода
Параметр матрицы формата : Default (MPEG)
Идентификатор кодека : XVID
Идентификатор кодека/Подсказка : XviD
Продолжительность : 2 ч. 3 м.
Битрейт : 1968 Кбит/сек
Ширина : 720 пикселей
Высота : 304 пикселя
Соотношение сторон : 2,35:1
Частота кадров : 23,976 (24000/1001) кадра/сек
Цветовое пространство : YUV
Субдискретизация насыщенности : 4:2:0
Битовая глубина : 8 бит
Тип развёртки : Прогрессивная
Метод сжатия : С потерями
Бит/(Пиксели*Кадры) : 0.375
Размер потока : 1,69 Гбайт (83%)
Библиотека кодирования : XviD 1.2.1 (UTC 2008-12-04)

Аудио
Идентификатор : 1
Формат : AC-3
Формат/Информация : Audio Coding 3
Параметр Endianness формата : Big
Идентификатор кодека : 2000
Продолжительность : 2 ч. 3 м.
Вид битрейта : Постоянный
Битрейт : 384 Кбит/сек
Каналы : 2 канала
Расположение каналов : Front: L R
Частота : 48,0 КГц
Частота кадров : 31,250 кадров/сек (1536 spf)
Битовая глубина : 16 бит
Метод сжатия : С потерями
Размер потока : 339 Мбайт (16%)
Выравнивание : Разделение по промежуткам
Продолжительность промежутка : 42 мс. (1,00 видеокадр)
Время предзагрузки промежутка : 500 мс.
ServiceKind/String : Complete Main

piratbit.org



Скачать Человек с тысячью лиц через торрент https://pic1.kartinco.top/images/11/75a82.jpg Скачать фильм Человек с тысячью лиц через торрент бесплантно в хорошем качестве Описание: История, основанная на реальных событиях, и раскрывающая взаимоотношения бывшего секретного агента Франсиско Паэсы и Луиса ... 9.3 10 13
Торрент: Зарегистрирован [2017-04-16 13:32] · скачан: 240 раз
Статус: T временная
Размер: 2.04 GB
Как cкачать? Как скачать Человек с тысячью лиц через торрент | UTorrent

28-11-2019 20:33  

Отключить всю рекламу на сайте

    Дорогой пользователь! Огромная просьба, поблагодарите релизера, оцените раздачу и оставьте свои комментарий, если Вы скачали Человек с тысячью лиц через торрент бесплатно! Внесите свою лепту в развитие PiratBit!
    Комментировать посты могут только пользователи прошедшие не сложную регистрацию
    Показать сообщения:    

    Человек с тысячью лиц через торрент
    Скачать бесплатно Человек с тысячью лиц
    Человек с тысячью лиц скачать торрент
    Человек с тысячью лиц смотреть онлайн
    Cкачать фильм Человек с тысячью лиц бесплатно
    Человек с тысячью лиц скачать торрент в хорошем качестве
    Человек с тысячью лиц смотреть онлайн бесплатно в хорошем качестве


    Вы не можете начинать темы
    Вы не можете отвечать на сообщения
    Вы не можете редактировать свои сообщения
    Вы не можете удалять свои сообщения
    Вы не можете голосовать в опросах
    Вы не можете прикреплять файлы к сообщениям
    Вы можете скачивать файлы