2 сезон

iTunes

MVO

1

2 сезон

iTunes

iTunes

1 сезон

RePack

30

Новинка

ВАЖНО

ИГРА 18+

pack

RePack

MK11
pack

Легкие деньги

RePack

jed

RePack

fifa19

RePack

RDR2

RePack

NEED FOR SPEED™ PAYBACK

4 сезон

9 сезон

Бесстыжие 9 сезон

Все сериалы

все сериалы на PB.wtf

RePack

FAR CRY 5

Anonymous, добрый вечер, мы не успеваем собрать деньги на оплату серверов за декабрь и январь, помогите нам пожалуйста в это трудное время. В качестве благодарности мы отключим Вам всю рекламу на сайте (укажите свой ник в строку Ваше имя)!

×
  
Magnet ссылка

Гагарин (Павел Байдиков) [2014 г., Документальный, биография,космонавтика, HDTVRip, Русский] R.G.Resident piratbit.org

Скачать  

17-04-2017 13:39 Гагарин Скачать торрент  

Гагарин
Год выпуска: 2014
Страна: Россия, АНО <<ТВ - НОВОСТИ>>
Жанр: Документальный, биография,космонавтика
Продолжительность: 00:29:59
Язык: Русский

Режиссер: Павел Байдиков

Описание: Перед полетом Юрия Гагарина в космос ТАСС заготовил три варианта сообщений. Первое – торжественное. Второе — на тот случай, если корабль не выйдет на орбиту и упадет где-нибудь в тайге или океане. В этом сообщении агентства было обращение к правительствам всех стран с просьбой о помощи в поиске космонавта. И третий вариант — о трагической гибели космического первопроходца. Этот документальный фильм рассказывает о том, почему Юра Гагарин не выбрал популярную в годы его юности профессию литейщика, зачем записался в аэроклуб и почему первого красавца Советского Союза бросила любимая девушка.

Качество: HDTVRip [исходник 1080i]
Формат: AVI
Видео кодек: XviD
Аудио кодек: AC3
Видео: 720x400 (1.80:1), 25 fps, XviD build 65 ~1682 kbps avg, 0.23 bit/pixel
Аудио#1: 48 kHz, AC3 Dolby Digital, 2/0 (L,R) ch, ~192.00 kbps avg
Релиз от: ruslanishe
General
Gagarin.XviD.2014.HDTVRip.R.G.Resident.avi
Format : AVI
Format/Info : Audio Video Interleave
File size : 350 MiB
Duration : 25mn 59s
Overall bit rate : 1 884 Kbps
Director : ruslanishe
Writing application : VirtualDubMod 1.5.10.3 | www.virtualdub-fr.org || (build 2550/release)
Copyright : R.G.Resident

Video
ID : 0
Format : MPEG-4 Visual
Format profile : Advanced Simple@L5
Format settings, BVOP : 2
Format settings, QPel : No
Format settings, GMC : No warppoints
Format settings, Matrix : Custom
Codec ID : XVID
Codec ID/Hint : XviD
Duration : 25mn 59s
Bit rate : 1682 Kbps
Width : 720 pixels
Height : 400 pixels
Display aspect ratio : 16:9
Frame rate : 25.000 fps
Color space : YUV
Chroma subsampling : 4:2:0
Bit depth : 8 bits
Scan type : Interlaced
Scan order : Bottom Field First
Compression mode : Lossy
Bits/(Pixel*Frame) : 0.234
Stream size : 313 MiB (89%)
Writing library : XviD 65

Audio
ID : 1
Format : AC-3
Format/Info : Audio Coding 3
Mode extension : CM (complete main)
Format settings, Endianness : Big
Codec ID : 2000
Duration : 25mn 59s
Bit rate mode : Constant
Bit rate : 192 Kbps
Channel(s) : 2 channels
Channel positions : Front: L R
Sampling rate : 48.0 KHz
Bit depth : 16 bits
Compression mode : Lossy
Stream size : 35.7 MiB (10%)
Alignment : Split accross interleaves
Interleave, duration : 40 ms (1.00 video frame)
Interleave, preload duration : 500 ms
piratbit.org



Скачать
Чтобы иметь возможность скачивать с Торрент Трекера, нужно Зарегистрироваться

Как скачивать  ·  Рейтинг и ограничения

28-11-2019 20:33  

Отключить всю рекламу на сайте

    Дорогой пользователь! Огромная просьба, поблагодарите релизера, оцените раздачу и оставьте свои комментарий, если Вы скачали Гагарин через торрент бесплатно! Внесите свою лепту в развитие PiratBit!
    Комментировать посты могут только пользователи прошедшие не сложную регистрацию
    Показать сообщения:    

    Гагарин через торрент
    Скачать бесплатно Гагарин
    Гагарин скачать торрент
    Гагарин смотреть онлайн
    Cкачать фильм Гагарин бесплатно
    Гагарин скачать торрент в хорошем качестве
    Гагарин смотреть онлайн бесплатно в хорошем качестве


    Вы не можете начинать темы
    Вы не можете отвечать на сообщения
    Вы не можете редактировать свои сообщения
    Вы не можете удалять свои сообщения
    Вы не можете голосовать в опросах
    Вы не можете прикреплять файлы к сообщениям
    Вы не можете скачивать файлы