1 сезон

3 сезон

iTunes

1

iTunes

DUB Netflix

iTunes

13

1 сезон

RePack

30

Deluxe

pack

Легкие деньги

ВАЖНО

ИГРА 18+

pack

RePack

MK11

RePack

jed

RePack

fifa19

RePack

RDR2

RePack

NEED FOR SPEED™ PAYBACK

4 сезон

9 сезон

Бесстыжие 9 сезон

Все сериалы

все сериалы на PB.wtf

RePack

FAR CRY 5

Anonymous, добрый вечер, мы не успеваем до 1 числа собрать деньги на оплату серверов, помогите нам пожалуйста в это трудное время. В качестве благодарности мы отключим Вам всю рекламу на сайте (укажите свой ник в строку Ваше имя)!

×
  
Magnet ссылка

Жестокое Лето / Cruel Summer (Phillip Escott, Craig Newman) [2016 г., Ужасы, триллер, драма, WEB-DLRip, Любительский (многоголосый)[Синема УС]] piratbit.org

Жестокое Лето через торрент piratbit.org

Размер: 1.37 GB | Добавлен: 4 года 2 мес. назад | Торрент скачан:191 раз
Скачать  

18-04-2017 03:11 Жестокое Лето Скачать торрент  

Жестокое Лето / Cruel Summer
Год выпуска: 2016
Страна: Великобритания
Жанр: Ужасы, триллер, драма
Продолжительность: 01:20:16
Перевод: Любительский (многоголосый)[Синема УС]
Субтитры: нет

Режиссер: Phillip Escott, Craig Newman

rating

В ролях: Дэнни Миллер, Рис Дуглас, Ричард Паульски, Натали Мартинс, Грейс Диксон, Томас Коннинг, Сабрина Дикенс, Джош Хопкинс, Гари Ноулз, Том Пауэлл

Описание: Юный парень по имени Дэнни, страдающий аутизмом, отправляется в поход, чтобы насладиться тишиной и покоем. Но его отдых прерывают три разъяренных подростка: Ник, Кэлвин и Джулия, которые хотят сделать так, чтобы Дэнни страдал.

Доп. информация: Есть реклама.

Качество: WEB-DLRip
Формат: AVI
Видео кодек: XviD
Аудио кодек: AC3
Видео: 720x304 (2.37:1), 23.976 fps, XviD build 50 ~1654 kbps avg, 0.32 bit/pixel
Аудио#1: 48 kHz, AC3 Dolby Digital, 2/0 (L,R) ch, ~384 kbps





General
Complete name : H:\релизы.торрентфайл\Cruel.Summer.2016.P.WEB-DLRip.14OOMB_KOSHARA.avi
Format : AVI
Format/Info : Audio Video Interleave
File size : 1.37 GiB
Duration : 1h 20mn
Overall bit rate : 2 438 Kbps
Writing application : VirtualDubMod 1.5.10.2 (build 2540/release)
Writing library : VirtualDubMod build 2540/release

Video
ID : 0
Format : MPEG-4 Visual
Format profile : Advanced Simple@L5
Format settings, BVOP : 2
Format settings, QPel : No
Format settings, GMC : No warppoints
Format settings, Matrix : Default (MPEG)
Codec ID : XVID
Codec ID/Hint : XviD
Duration : 1h 20mn
Bit rate : 1 656 Kbps
Width : 720 pixels
Height : 304 pixels
Display aspect ratio : 2.35:1
Frame rate : 23.976 fps
Color space : YUV
Chroma subsampling : 4:2:0
Bit depth : 8 bits
Scan type : Progressive
Compression mode : Lossy
Bits/(Pixel*Frame) : 0.316
Stream size : 951 MiB (68%)
Writing library : XviD 1.2.1 (UTC 2008-12-04)

Audio #1
ID : 1
Format : AC-3
Format/Info : Audio Coding 3
Mode extension : CM (complete main)
Format settings, Endianness : Big
Codec ID : 2000
Duration : 1h 20mn
Bit rate mode : Constant
Bit rate : 384 Kbps
Channel(s) : 2 channels
Channel positions : Front: L R
Sampling rate : 48.0 KHz
Bit depth : 16 bits
Compression mode : Lossy
Stream size : 220 MiB (16%)
Alignment : Split accross interleaves
Interleave, duration : 42 ms (1.00 video frame)
Interleave, preload duration : 500 ms

piratbit.org



Скачать Жестокое Лето через торрент http://i90.fastpic.ru/big/2017/0418/a2/1170bea00efe512a523b399c3f41dda2.jpg Скачать фильм Жестокое Лето через торрент бесплантно в хорошем качестве Описание: Юный парень по имени Дэнни, страдающий аутизмом, отправляется в поход, чтобы насладиться тишиной и покоем. Но его отдых прерывают ... 8.3 10 6
Торрент: Зарегистрирован [2017-04-18 03:11] · скачан: 191 раз
Статус: T временная
Размер: 1.37 GB
Как cкачать? Как скачать Жестокое Лето через торрент | UTorrent

% Раздел Тема Автор DL S | L
Зарубежные сериалы [ 10.91 GB ] Жестокое лето / Cruel Summer / Сезон: 1 / Серии: 1-10 из 10 [2021 WEB-DL 720p] MVO [Jaskier] bober100 Скачать
8 | 1
Зарубежные сериалы [ 21.86 GB ] Жестокое лето / Cruel Summer / Сезон: 1 / Серии: 1-10 из 10 [2021 WEB-DL 1080p] MVO [Jaskier] bober100 Скачать
3 | 1

28-11-2019 20:33  

Отключить всю рекламу на сайте


    Дорогой пользователь! Огромная просьба, поблагодарите релизера, оцените раздачу и оставьте свои комментарий, если Вы скачали Жестокое Лето через торрент бесплатно! Внесите свою лепту в развитие PiratBit!
    Комментировать посты могут только пользователи прошедшие не сложную регистрацию
    Показать сообщения:    

    Жестокое Лето через торрент
    Скачать бесплатно Жестокое Лето
    Жестокое Лето скачать торрент
    Жестокое Лето смотреть онлайн
    Cкачать фильм Жестокое Лето бесплатно
    Жестокое Лето скачать торрент в хорошем качестве
    Жестокое Лето смотреть онлайн бесплатно в хорошем качестве


    Вы не можете начинать темы
    Вы не можете отвечать на сообщения
    Вы не можете редактировать свои сообщения
    Вы не можете удалять свои сообщения
    Вы не можете голосовать в опросах
    Вы не можете прикреплять файлы к сообщениям
    Вы можете скачивать файлы