1 сезон

3 сезон

iTunes

1

iTunes

DUB Netflix

iTunes

13

1 сезон

RePack

30

Deluxe

pack

Легкие деньги

ВАЖНО

ИГРА 18+

pack

RePack

MK11

RePack

jed

RePack

fifa19

RePack

RDR2

RePack

NEED FOR SPEED™ PAYBACK

4 сезон

9 сезон

Бесстыжие 9 сезон

Все сериалы

все сериалы на PB.wtf

RePack

FAR CRY 5

Anonymous, добрый день, мы не успеваем до 1 числа собрать деньги на оплату серверов, помогите нам пожалуйста в это трудное время. В качестве благодарности мы отключим Вам всю рекламу на сайте (укажите свой ник в строку Ваше имя)!

×
  
Magnet ссылка

Кикбоксер / Kickboxer: Vengeance (Джон Стокуэлл ) [2016, боевик, BDRip-AVC] [MVO] iTunes - ExKinoRay piratbit.org

Кикбоксер через торрент piratbit.org

Размер: 1.77 GB | Добавлен: 4 года 2 мес. назад | Торрент скачан:248 раз
Скачать  

18-04-2017 03:32 Кикбоксер Скачать торрент  

Информация о фильме
Название: Кикбоксер
Оригинальное название: Kickboxer Vengeance
Год выпуска: 2016
Страна: США
Студия: Headmon Entertainment & Productions, Radar Pictures Inc.
Жанр: Боевик
Продолжительность: 01:30:25
Перевод: Профессиональный (многоголосый, закадровый) | iTunes
Субтитры: Английские
Режиссер: Джон Стокуэлл
В ролях: Ален Мусси, Жорж Сен-Пьер, Т.Дж. Сторм, Мэттью Зифф, Сэм Медина, Дэйв Батиста, Сью-Линн Ансари, Даррен Шалави, Джина Карано, Хоун Трэн, Жан-Клод Ван Дамм

Описание: Сюжет разворачивается вокруг братьев из калифорнийской династии бойцов Дэвида и Курта Слоан. Дэвид погибает в одном из поединков в Гонконге. Узнав об этом, Курт едет в Таиланд к своему наставнику, с помощью которого рассчитывает обрести силу воли, чтобы отомстить за смерть брата.

rating

Файл
Формат: MKV
Качество: BDRip (AVC)
Видео: AVC, 1024x426 (2.40:1), 1980 kbps, 23.976 fps, 0,189 bpp
Аудио1: 48 kHz, AC3, 5.1, 384 Kbps | RUS |
Аудио2: 48 kHz, AC3, 5.1, 448 Kbps | ENG |

Навигация по главам: есть
General
Unique ID : 185078311653246607816238638606751340261 (0x8B3CC9477B1CB06F9CF5F441133B96E5)
Complete name : D:\Kickboxer.Vengeance.2016.MVO.BDRip.AVC.ExKinoRay.mkv
Format : Matroska
Format version : Version 2
File size : 1.77 GiB
Duration : 1 h 30 min
Overall bit rate : 2 808 kb/s
Movie name : Kickboxer Vengeance (2016) from ExKinoRay
Encoded date : UTC 2017-04-17 23:53:36
Writing application : mkvmerge v5.8.0 ('No Sleep / Pillow') built on Sep 2 2012 15:37:04
Writing library : libebml v1.2.3 + libmatroska v1.3.0

Video
ID : 1
Format : AVC
Format/Info : Advanced Video Codec
Format profile : High@L4.1
Format settings, CABAC : Yes
Format settings, ReFrames : 13 frames
Codec ID : V_MPEG4/ISO/AVC
Duration : 1 h 30 min
Bit rate : 1 980 kb/s
Width : 1 024 pixels
Height : 426 pixels
Display aspect ratio : 2.40:1
Frame rate mode : Constant
Frame rate : 23.976 (24000/1001) FPS
Color space : YUV
Chroma subsampling : 4:2:0
Bit depth : 8 bits
Scan type : Progressive
Bits/(Pixel*Frame) : 0.189
Stream size : 1.21 GiB (68%)
Title : Enigma
Writing library : x264 core 144 r2525 40bb568
Encoding settings : cabac=1 / ref=13 / deblock=1:-3:-3 / analyse=0x3:0x113 / me=umh / subme=10 / psy=1 / psy_rd=1.00:0.05 / mixed_ref=1 / me_range=32 / chroma_me=1 / trellis=2 / 8x8dct=1 / cqm=0 / deadzone=21,11 / fast_pskip=1 / chroma_qp_offset=-3 / threads=12 / lookahead_threads=3 / sliced_threads=0 / nr=0 / decimate=0 / interlaced=0 / bluray_compat=0 / constrained_intra=0 / bframes=10 / b_pyramid=2 / b_adapt=2 / b_bias=0 / direct=3 / weightb=1 / open_gop=0 / weightp=2 / keyint=240 / keyint_min=23 / scenecut=40 / intra_refresh=0 / rc_lookahead=40 / rc=2pass / mbtree=0 / bitrate=1980 / ratetol=1.0 / qcomp=0.60 / qpmin=0 / qpmax=51 / qpstep=4 / cplxblur=20.0 / qblur=0.5 / vbv_maxrate=50000 / vbv_bufsize=62500 / nal_hrd=none / filler=0 / ip_ratio=1.40 / pb_ratio=1.30 / aq=1:1.00
Language : English
Default : Yes
Forced : No
Color range : Limited
Color primaries : BT.709
Transfer characteristics : BT.709
Matrix coefficients : BT.709

Audio #1
ID : 2
Format : AC-3
Format/Info : Audio Coding 3
Mode extension : CM (complete main)
Format settings, Endianness : Big
Codec ID : A_AC3
Duration : 1 h 30 min
Bit rate mode : Constant
Bit rate : 384 kb/s
Channel(s) : 6 channels
Channel positions : Front: L C R, Side: L R, LFE
Sampling rate : 48.0 kHz
Frame rate : 31.250 FPS (1536 spf)
Compression mode : Lossy
Stream size : 248 MiB (14%)
Title : MVO (iTunes)
Language : Russian
Default : Yes
Forced : No

Audio #2
ID : 3
Format : AC-3
Format/Info : Audio Coding 3
Mode extension : CM (complete main)
Format settings, Endianness : Big
Codec ID : A_AC3
Duration : 1 h 30 min
Bit rate mode : Constant
Bit rate : 448 kb/s
Channel(s) : 6 channels
Channel positions : Front: L C R, Side: L R, LFE
Sampling rate : 48.0 kHz
Frame rate : 31.250 FPS (1536 spf)
Compression mode : Lossy
Stream size : 290 MiB (16%)
Language : English
Default : No
Forced : No

Text
ID : 4
Format : UTF-8
Codec ID : S_TEXT/UTF8
Codec ID/Info : UTF-8 Plain Text
Language : English
Default : No
Forced : No

Menu
00:00:00.000 : en:00:00:00.000
00:09:58.807 : en:00:09:58.807
00:19:27.500 : en:00:19:27.500
00:30:01.383 : en:00:30:01.383
00:39:43.339 : en:00:39:43.339
00:50:19.183 : en:00:50:19.183
01:00:29.417 : en:01:00:29.417
01:08:08.835 : en:01:08:08.835
01:14:56.826 : en:01:14:56.826
01:24:47.291 : en:01:24:47.291
Релиз от:

Автор релиза: piratbit.org



Скачать Кикбоксер через торрент http://i045.radikal.ru/1610/bb/e8b700813c10.jpg Скачать фильм Кикбоксер через торрент бесплантно в хорошем качестве Описание: Сюжет разворачивается вокруг братьев из калифорнийской династии бойцов Дэвида и Курта Слоан. Дэвид погибает в одном из поединков ... 8.6 10 10
Info! Золотая раздача, скачанное не засчитывается.
Торрент: Зарегистрирован [2017-04-18 03:32] · скачан: 248 раз
Статус: √ проверено
Размер: 1.77 GB
Как cкачать? Как скачать Кикбоксер через торрент | UTorrent

28-11-2019 20:33  

Отключить всю рекламу на сайте

18-04-2017 04:17 Кикбоксер Скачать торрент  

В принципе фильм не плохой. Сюжет повторяет один в один старого Кикбоксера. Драки поставлены в фирменном стиле Ван Дамма. Есть в фильме один ляп - драка на слонах, отчетливо видно что слоны муляж.piratbit.org



    Дорогой пользователь! Огромная просьба, поблагодарите релизера, оцените раздачу и оставьте свои комментарий, если Вы скачали Кикбоксер через торрент бесплатно! Внесите свою лепту в развитие PiratBit!
    Комментировать посты могут только пользователи прошедшие не сложную регистрацию
    Показать сообщения:    

    Кикбоксер через торрент
    Скачать бесплатно Кикбоксер
    Кикбоксер скачать торрент
    Кикбоксер смотреть онлайн
    Cкачать фильм Кикбоксер бесплатно
    Кикбоксер скачать торрент в хорошем качестве
    Кикбоксер смотреть онлайн бесплатно в хорошем качестве


    Вы не можете начинать темы
    Вы не можете отвечать на сообщения
    Вы не можете редактировать свои сообщения
    Вы не можете удалять свои сообщения
    Вы не можете голосовать в опросах
    Вы не можете прикреплять файлы к сообщениям
    Вы можете скачивать файлы