1 сезон

3 сезон

iTunes

1

iTunes

DUB Netflix

iTunes

13

1 сезон

RePack

30

Deluxe

pack

Легкие деньги

ВАЖНО

ИГРА 18+

pack

RePack

MK11

RePack

jed

RePack

fifa19

RePack

RDR2

RePack

NEED FOR SPEED™ PAYBACK

4 сезон

9 сезон

Бесстыжие 9 сезон

Все сериалы

все сериалы на PB.wtf

RePack

FAR CRY 5

Anonymous, доброй ночи, мы не успеваем до 1 числа собрать деньги на оплату серверов, помогите нам пожалуйста в это трудное время. В качестве благодарности мы отключим Вам всю рекламу на сайте (укажите свой ник в строку Ваше имя)!

×
  
Magnet ссылка

Кикбоксер / Kickboxer: Vengeance (Джон Стокуэлл) [2016 г., Боевик, BDRip, Профессиональный (многоголосый) / iTunes] piratbit.org

Кикбоксер через торрент piratbit.org

Размер: 1.42 GB | Добавлен: 4 года 2 мес. назад | Торрент скачан:360 раз
Скачать  

18-04-2017 05:20 Кикбоксер Скачать торрент  

Кикбоксер / Kickboxer: Vengeance
Год выпуска: 2016
Страна: США
Жанр: Боевик
Продолжительность: 01:30:23
Перевод: Профессиональный (многоголосый) | iTunes
Субтитры: нет

Режиссер: Джон Стокуэлл

rating

В ролях: Ален Мусси, Жорж Сен-Пьер, Т.Дж. Сторм, Мэттью Зифф, Сэм Медина, Дэйв Батиста, Сью-Линн Ансари, Даррен Шалави, Джина Карано, Хоун Трэн, Жан-Клод Ван Дамм

Описание: Сюжет разворачивается вокруг братьев из калифорнийской династии бойцов Дэвида и Курта Слоан. Дэвид погибает в одном из поединков в Гонконге. Узнав об этом, Курт едет в Таиланд к своему наставнику, с помощью которого рассчитывает обрести силу воли, чтобы отомстить за смерть брата.

Качество: BDRip
Формат: AVI
Видео кодек: XviD
Аудио кодек: AC3
Видео: XviD, 720x304, 23.976 fps, 1855 kbps
Аудио: AC3, 6 ch, 384 kbps,48.0 KHz



General
Complete name : H:\релизы.торрентфайл\Kickboxer.Vengeance.2016.BDRip.1.42Gb.D.MegaPeer.avi
Format : AVI
Format/Info : Audio Video Interleave
File size : 1.42 GiB
Duration : 1h 30mn
Overall bit rate : 2 247 Kbps

Video
ID : 0
Format : MPEG-4 Visual
Format profile : Advanced Simple@L5
Format settings, BVOP : 1
Format settings, QPel : No
Format settings, GMC : No warppoints
Format settings, Matrix : Custom
Codec ID : XVID
Codec ID/Hint : XviD
Duration : 1h 30mn
Bit rate : 1 856 Kbps
Width : 720 pixels
Height : 304 pixels
Display aspect ratio : 2.35:1
Frame rate : 23.976 fps
Color space : YUV
Chroma subsampling : 4:2:0
Bit depth : 8 bits
Scan type : Progressive
Compression mode : Lossy
Bits/(Pixel*Frame) : 0.354
Stream size : 1.17 GiB (83%)
Writing library : XviD 73

Audio
ID : 1
Format : AC-3
Format/Info : Audio Coding 3
Mode extension : CM (complete main)
Format settings, Endianness : Big
Codec ID : 2000
Duration : 1h 30mn
Bit rate mode : Constant
Bit rate : 384 Kbps
Channel(s) : 6 channels
Channel positions : Front: L C R, Side: L R, LFE
Sampling rate : 48.0 KHz
Bit depth : 16 bits
Compression mode : Lossy
Stream size : 248 MiB (17%)
Alignment : Aligned on interleaves
Interleave, duration : 64 ms (1.53 video frames)
Interleave, preload duration : 192 ms
Title : iTunes

piratbit.org



Скачать Кикбоксер через торрент http://i90.fastpic.ru/big/2017/0417/36/30f6fccecf709278e0bee0bfc59e1536.jpg Скачать фильм Кикбоксер через торрент бесплантно в хорошем качестве Описание: Сюжет разворачивается вокруг братьев из калифорнийской династии бойцов Дэвида и Курта Слоан. Дэвид погибает в одном из поединков ... 8.3 10 10
Торрент: Зарегистрирован [2017-04-18 05:20] · скачан: 360 раз
Статус: √ проверено
Размер: 1.42 GB
Как cкачать? Как скачать Кикбоксер через торрент | UTorrent

% Раздел Тема Автор DL S | L
Фильмы 2016 [DVDrip, WEB-DLRip, HDrip] (DUB, MVO) [ 1.42 GB ] Кикбоксер / Kickboxer: Vengeance [2016 BDRip] многоголосый Twi7ter Скачать
2 | 0
Фильмы 2016 [DVDrip, WEB-DLRip, HDrip] (DUB, MVO) [ 1.77 GB ] Кикбоксер / Kickboxer: Vengeance [2016 BDRip-AVC] [MVO] - ExKinoRay Enigma2010 Скачать
1 | 0

28-11-2019 20:33  

Отключить всю рекламу на сайте

18-04-2017 07:07 Кикбоксер Скачать торрент  

Фильм так себе,на разок)piratbit.org



19-04-2017 21:25 Кикбоксер Скачать торрент  

клод пенсия ждет piratbit.org



    Дорогой пользователь! Огромная просьба, поблагодарите релизера, оцените раздачу и оставьте свои комментарий, если Вы скачали Кикбоксер через торрент бесплатно! Внесите свою лепту в развитие PiratBit!
    Комментировать посты могут только пользователи прошедшие не сложную регистрацию
    Показать сообщения:    

    Кикбоксер через торрент
    Скачать бесплатно Кикбоксер
    Кикбоксер скачать торрент
    Кикбоксер смотреть онлайн
    Cкачать фильм Кикбоксер бесплатно
    Кикбоксер скачать торрент в хорошем качестве
    Кикбоксер смотреть онлайн бесплатно в хорошем качестве


    Вы не можете начинать темы
    Вы не можете отвечать на сообщения
    Вы не можете редактировать свои сообщения
    Вы не можете удалять свои сообщения
    Вы не можете голосовать в опросах
    Вы не можете прикреплять файлы к сообщениям
    Вы можете скачивать файлы