1 сезон

3 сезон

iTunes

1

iTunes

DUB Netflix

iTunes

13

1 сезон

RePack

30

Deluxe

pack

Легкие деньги

ВАЖНО

ИГРА 18+

pack

RePack

MK11

RePack

jed

RePack

fifa19

RePack

RDR2

RePack

NEED FOR SPEED™ PAYBACK

4 сезон

9 сезон

Бесстыжие 9 сезон

Все сериалы

все сериалы на PB.wtf

RePack

FAR CRY 5

Anonymous, доброй ночи, мы не успеваем до 1 числа собрать деньги на оплату серверов, помогите нам пожалуйста в это трудное время. В качестве благодарности мы отключим Вам всю рекламу на сайте (укажите свой ник в строку Ваше имя)!

×
  
Magnet ссылка

Похищение в Румынии / Kidnapped in Romania (Карло Фуско) [2016 г., драма, WEB-DLRip, Любительский (многоголосый)[@MUZOBOZ@] ] piratbit.org

Похищение в Румынии через торрент piratbit.org

Размер: 1.37 GB | Добавлен: 4 года 2 мес. назад | Торрент скачан:46 раз
Скачать  

18-04-2017 12:21 Похищение в Румынии Скачать торрент  

Похищение в Румынии / Kidnapped in Romania
Год выпуска: 2016
Страна: Италия, Румыния
Жанр: драма
Продолжительность: 01:29:24
Перевод: Любительский (многоголосый)[@MUZOBOZ@]
Субтитры: нет
Режиссер: Карло Фуско
Доп. информация: Есть реклама.
rating

В ролях: Майкл Мэдсен, Андреа Штефанчикова, Пол Сорвино, Майа Истодор, Гучи Бой, Абраам Фонтана, Эебра Туре, Юн Кометти, Dumitru Georgescu, Ileana Grigoras

Описание: Двое итало-американских журналистов пропадают во время рабочей поездки в Румынию.

Качество: WEB-DLRip
Формат: AVI
Видео кодек: XviD
Аудио кодек: AC3
Видео: 720x304 (2.37:1), 23.976 fps, XviD build 50 ~1795 kbps
Аудио#1: 48 kHz, AC3 Dolby Digital, 2/0 (L,R) ch, ~384 kbps



General
Complete name : H:\релизы.торрентфайл\Kidnapped.in.Romania.2016.P.WEB-DLRip.14OOMB_KOSHARA.avi
Format : AVI
Format/Info : Audio Video Interleave
File size : 1.37 GiB
Duration : 1h 29mn
Overall bit rate : 2 189 Kbps
Writing application : VirtualDubMod 1.5.10.2 (build 2540/release)
Writing library : VirtualDubMod build 2540/release

Video
ID : 0
Format : MPEG-4 Visual
Format profile : Advanced Simple@L5
Format settings, BVOP : 2
Format settings, QPel : No
Format settings, GMC : No warppoints
Format settings, Matrix : Default (MPEG)
Codec ID : XVID
Codec ID/Hint : XviD
Duration : 1h 29mn
Bit rate : 1 796 Kbps
Width : 720 pixels
Height : 304 pixels
Display aspect ratio : 2.35:1
Frame rate : 23.976 fps
Color space : YUV
Chroma subsampling : 4:2:0
Bit depth : 8 bits
Scan type : Progressive
Compression mode : Lossy
Bits/(Pixel*Frame) : 0.342
Stream size : 1.12 GiB (82%)
Writing library : XviD 1.2.1 (UTC 2008-12-04)

Audio
ID : 1
Format : AC-3
Format/Info : Audio Coding 3
Mode extension : CM (complete main)
Format settings, Endianness : Big
Codec ID : 2000
Duration : 1h 29mn
Bit rate mode : Constant
Bit rate : 384 Kbps
Channel(s) : 2 channels
Channel positions : Front: L R
Sampling rate : 48.0 KHz
Bit depth : 16 bits
Compression mode : Lossy
Stream size : 246 MiB (18%)
Alignment : Split accross interleaves
Interleave, duration : 42 ms (1.00 video frame)
Interleave, preload duration : 500 ms

piratbit.org
!Ворон писал(а):

Есть реклама!



Скачать Похищение в Румынии через торрент http://i91.fastpic.ru/big/2017/0418/88/63984a1e12fa6a5ca71b3215ff49e688.jpg Скачать фильм Похищение в Румынии через торрент бесплантно в хорошем качестве Описание: Двое итало-американских журналистов пропадают во время рабочей поездки в ... 8 10 5
Торрент: Зарегистрирован [2017-04-18 12:28] · скачан: 46 раз
Статус: T временная
Размер: 1.37 GB
Как cкачать? Как скачать Похищение в Румынии через торрент | UTorrent



Последний раз редактировалось: oleg8 (2017-04-18 13:00), всего редактировалось 5 раз(а)

28-11-2019 20:33  

Отключить всю рекламу на сайте

18-04-2017 12:24 Похищение в Румынии Скачать торрент  

Семпла пока не будет,у меня не открывается multi-up.com .piratbit.org
!Ворон писал(а):

Добавил сэмпл.



18-04-2017 12:34 Похищение в Румынии Скачать торрент  

oleg8, https://pb.wtf/topic/162220/
13.2 Рекомендуется заливать сэмпл на:
rghost.ru
f-bit.ru
sendfile.su

https://pb.wtf/topic/58128

Про рекламу не забываем указывать она тут есть судя по скриншотам.piratbit.org
!Ворон писал(а):

На будущее!



18-04-2017 12:37 Похищение в Румынии Скачать торрент  

Может в РумыниИ?, А не румыниpiratbit.org



18-04-2017 12:43 Похищение в Румынии Скачать торрент  

DiasIV писал(а):

Может в РумыниИ?, А не румыни

- может и в И. Спорить не буду.piratbit.org



    Дорогой пользователь! Огромная просьба, поблагодарите релизера, оцените раздачу и оставьте свои комментарий, если Вы скачали Похищение в Румынии через торрент бесплатно! Внесите свою лепту в развитие PiratBit!
    Комментировать посты могут только пользователи прошедшие не сложную регистрацию
    Показать сообщения:    

    Похищение в Румынии через торрент
    Скачать бесплатно Похищение в Румынии
    Похищение в Румынии скачать торрент
    Похищение в Румынии смотреть онлайн
    Cкачать фильм Похищение в Румынии бесплатно
    Похищение в Румынии скачать торрент в хорошем качестве
    Похищение в Румынии смотреть онлайн бесплатно в хорошем качестве


    Вы не можете начинать темы
    Вы не можете отвечать на сообщения
    Вы не можете редактировать свои сообщения
    Вы не можете удалять свои сообщения
    Вы не можете голосовать в опросах
    Вы не можете прикреплять файлы к сообщениям
    Вы можете скачивать файлы