1 сезон

3 сезон

iTunes

1

iTunes

DUB Netflix

iTunes

13

1 сезон

RePack

30

Deluxe

pack

Легкие деньги

ВАЖНО

ИГРА 18+

pack

RePack

MK11

RePack

jed

RePack

fifa19

RePack

RDR2

RePack

NEED FOR SPEED™ PAYBACK

4 сезон

9 сезон

Бесстыжие 9 сезон

Все сериалы

все сериалы на PB.wtf

RePack

FAR CRY 5

Anonymous, доброй ночи, мы не успеваем до 1 числа собрать деньги на оплату серверов, помогите нам пожалуйста в это трудное время. В качестве благодарности мы отключим Вам всю рекламу на сайте (укажите свой ник в строку Ваше имя)!

×
  
Magnet ссылка

Почти семнадцать / The Edge of Seventeen (Келли Фрэмон) [2016 г., драма, комедия, HDRip, Профессиональный многоголосый закадровый "iTunes"] piratbit.org

Почти семнадцать через торрент piratbit.org

Размер: 2.03 GB | Добавлен: 4 года 2 мес. назад | Торрент скачан:101 раз
Скачать  

18-04-2017 18:30 Почти семнадцать Скачать торрент  

Почти семнадцать / The Edge of Seventeen
Год выпуска: 2016
Страна: США / Gracie Films, STX Entertainment
Жанр: драма, комедия
Продолжительность: 01:44:54
Перевод: Профессиональный многоголосый закадровый (iTunes)
Субтитры: Русские форсированные - вшитые

Режиссер: Келли Фрэмон

rating

В ролях: Хейли Стайнфелд, Хейли Лу Ричардсон, Блейк Дженнер, Кира Седжвик, Вуди Харрельсон, Хейден Сзето, Александр Кэлверт, Эрик Кинлисайд, Неста Купер, Дэниэл Бэйкон

Описание: С самого детства Надин считала, что её старшему брату всё даётся легко и просто, а сама она росла врединой и даже не могла завести друзей в начальной школе. Но однажды девочка Криста захотела дружить с ней, и они стали лучшими подругами. В свои 17 лет Надин всё так же ненавидит брата, и когда Криста начинает с ним встречаться, мир переворачивается с ног на голову.

Качество: HDRip
Формат: AVI
Видео кодек: XviD
Аудио кодек: AC3
Видео: 720x384 (1.88:1), 23.976 fps, XviD build 50 ~2377 kbps avg, 0.36 bit/pixel
Аудио: 48 kHz, AC3 Dolby Digital, 3/2 (L,C,R,l,r) + LFE ch, ~384 kbps

Общее
Полное имя : F:\ФИЛЬМЫ\Почти семнадцать.2016.HDRip.avi
Формат : AVI
Формат/Информация : Audio Video Interleave
Профиль формата : OpenDML
Размер файла : 2,03 Гбайт
Продолжительность : 1 ч. 44 м.
Общий поток : 2768 Кбит/сек
Программа кодирования : VirtualDubMod 1.5.10.3 | www.virtualdub-fr.org || (build 2550/release)
Библиотека кодирования : VirtualDubMod build 2550/release

Видео
Идентификатор : 0
Формат : MPEG-4 Visual
Профиль формата : Advanced Simple@L5
Параметр BVOP формата : 1
Параметр QPel формата : Нет
Параметр GMC формата : Без точки перехода
Параметр матрицы формата : Default (MPEG)
Идентификатор кодека : XVID
Идентификатор кодека/Подсказка : XviD
Продолжительность : 1 ч. 44 м.
Битрейт : 2372 Кбит/сек
Ширина : 720 пикселей
Высота : 384 пикселя
Соотношение сторон : 1,85:1
Частота кадров : 23,976 (24000/1001) кадра/сек
Цветовое пространство : YUV
Субдискретизация насыщенности : 4:2:0
Битовая глубина : 8 бит
Тип развёртки : Прогрессивная
Метод сжатия : С потерями
Бит/(Пиксели*Кадры) : 0.358
Размер потока : 1,74 Гбайт (86%)
Библиотека кодирования : XviD 1.2.1 (UTC 2008-12-04)

Аудио
Идентификатор : 1
Формат : AC-3
Формат/Информация : Audio Coding 3
Параметр Endianness формата : Big
Идентификатор кодека : 2000
Продолжительность : 1 ч. 44 м.
Вид битрейта : Постоянный
Битрейт : 384 Кбит/сек
Каналы : 6 каналов
Расположение каналов : Front: L C R, Side: L R, LFE
Частота : 48,0 КГц
Частота кадров : 31,250 кадров/сек (1536 spf)
Битовая глубина : 16 бит
Метод сжатия : С потерями
Размер потока : 288 Мбайт (14%)
Выравнивание : Разделение по промежуткам
Продолжительность промежутка : 42 мс. (1,00 видеокадр)
Время предзагрузки промежутка : 500 мс.
ServiceKind/String : Complete Main

piratbit.org



Скачать Почти семнадцать через торрент https://pic1.kartinco.top/images/11/tnbqn.jpg Скачать фильм Почти семнадцать через торрент бесплантно в хорошем качестве Описание: С самого детства Надин считала, что её старшему брату всё даётся легко и просто, а сама она росла врединой и даже не могла ... 9.8 10 4
Торрент: Зарегистрирован [2017-04-18 18:30] · скачан: 101 раз
Статус: √ проверено
Размер: 2.03 GB
Как cкачать? Как скачать Почти семнадцать через торрент | UTorrent

% Раздел Тема Автор DL S | L
Фильмы 2016 [DVDrip, WEB-DLRip, HDrip] (DUB, MVO) [ 1.46 GB ] Почти семнадцать / The Edge of Seventeen [2016 BDRip] многоголосый [] Twi7ter Скачать
1 | 0
Фильмы 2016 [DVDrip, WEB-DLRip, HDrip] (DUB, MVO) [ 1.96 GB ] Почти семнадцать / The Edge of Seventeen [2016 BDRip-AVC] MVO [] - ExKinoRay Enigma2010 Скачать
1 | 0
Фильмы [HD 720p, 1080p] (Хороший звук DUB, MVO) [ 5.76 GB ] Почти семнадцать / The Edge of Seventeen [2016 BDRip 720p] MVO sheker187 Скачать
1 | 0
Фильмы [HD 720p, 1080p] (Хороший звук DUB, MVO) [ 7.57 GB ] Почти семнадцать / The Edge of Seventeen [2016 BDRip 1080p] MVO bober100 Скачать
1 | 0

28-11-2019 20:33  

Отключить всю рекламу на сайте

    Дорогой пользователь! Огромная просьба, поблагодарите релизера, оцените раздачу и оставьте свои комментарий, если Вы скачали Почти семнадцать через торрент бесплатно! Внесите свою лепту в развитие PiratBit!
    Комментировать посты могут только пользователи прошедшие не сложную регистрацию
    Показать сообщения:    

    Почти семнадцать через торрент
    Скачать бесплатно Почти семнадцать
    Почти семнадцать скачать торрент
    Почти семнадцать смотреть онлайн
    Cкачать фильм Почти семнадцать бесплатно
    Почти семнадцать скачать торрент в хорошем качестве
    Почти семнадцать смотреть онлайн бесплатно в хорошем качестве


    Вы не можете начинать темы
    Вы не можете отвечать на сообщения
    Вы не можете редактировать свои сообщения
    Вы не можете удалять свои сообщения
    Вы не можете голосовать в опросах
    Вы не можете прикреплять файлы к сообщениям
    Вы можете скачивать файлы