1 сезон

3 сезон

iTunes

1

iTunes

DUB Netflix

iTunes

13

1 сезон

RePack

30

Deluxe

pack

Легкие деньги

ВАЖНО

ИГРА 18+

pack

RePack

MK11

RePack

jed

RePack

fifa19

RePack

RDR2

RePack

NEED FOR SPEED™ PAYBACK

4 сезон

9 сезон

Бесстыжие 9 сезон

Все сериалы

все сериалы на PB.wtf

RePack

FAR CRY 5

Anonymous, добрый вечер, мы не успеваем до 1 числа собрать деньги на оплату серверов, помогите нам пожалуйста в это трудное время. В качестве благодарности мы отключим Вам всю рекламу на сайте (укажите свой ник в строку Ваше имя)!

×
  
Magnet ссылка

Ла-Ла Ленд / La La Land (Дэмьен Шазелл) [2016, мюзикл, драма, мелодрама, BDRip-AVC ] [Dub, Лицензия] - ExKinoRay piratbit.org

Ла-Ла Ленд через торрент piratbit.org

Размер: 2.18 GB | Добавлен: 4 года 1 мес. назад | Торрент скачан:348 раз
Скачать  

20-04-2017 02:47 Ла-Ла Ленд Скачать торрент  

Информация о фильме
Название: Ла-Ла Ленд
Оригинальное название: La La Land
Год выпуска: 2016
Страна: США, Гонконг
Студия: Black Label Media, Gilbert Films, Impostor Pictures, Marc Platt Productions
Жанр: Драма, комедия, мелодрама, мюзикл
Продолжительность: 02:07:48
Перевод: Дублированный | Лицензия
Субтитры: Русские (Forced на песни, Full), английские
Режиссер: Дэмьен Шазелл
В ролях: Райан Гослинг, Эмма Стоун, Джон Ледженд, Дж.К. Симмонс, Розмари ДеУитт, Финн Уиттрок, Калли Эрнандес, Соноя Мидзуно, Джессика Рот, Том Эверетт Скотт, Джошуа Пенс, Терри Уолтерс

Описание: Это история любви старлетки, которая между прослушиваниями подает кофе состоявшимся кинозвездам, и фанатичного джазового музыканта, вынужденного подрабатывать в заштатных барах. Но пришедший к влюбленным успех начинает подтачивать их отношения.

rating

Файл
Формат: MKV
Качество: BDRip-AVC
Видео: AVC, 1024x402 (2.547), 1545 kbps, 23.976 fps, 0,157 bpp
Аудио1: 48 kHz, AC3, 5.1, 448 Kbps | RUS |
Аудио2: 48 kHz, AC3, 5.1, 448 Kbps | ENG |
x264 [info]: frame I:1032 Avg QP:14.19 size: 62325
x264 [info]: frame P:40290 Avg QP:18.54 size: 17268
x264 [info]: frame B:142529 Avg QP:20.15 size: 5032

_______________________________________________________-
General
Unique ID : 194064762099509772655057263812908485776 (0x91FF837E6BCE1532966F736863410C90)
Complete name : D:\La.La.Land.2016.D.BDRip.AVC.ExKinoRay.mkv
Format : Matroska
Format version : Version 2
File size : 2.18 GiB
Duration : 2 h 7 min
Overall bit rate : 2 439 kb/s
Encoded date : UTC 2017-05-19 02:43:11
Writing application : mkvmerge v5.8.0 ('No Sleep / Pillow') built on Sep 2 2012 15:37:04
Writing library : libebml v1.2.3 + libmatroska v1.3.0

Video
ID : 1
Format : AVC
Format/Info : Advanced Video Codec
Format profile : High@L4.1
Format settings, CABAC : Yes
Format settings, ReFrames : 12 frames
Codec ID : V_MPEG4/ISO/AVC
Duration : 2 h 7 min
Bit rate : 1 545 kb/s
Width : 1 024 pixels
Height : 402 pixels
Display aspect ratio : 2.547
Frame rate mode : Constant
Frame rate : 23.976 (24000/1001) FPS
Color space : YUV
Chroma subsampling : 4:2:0
Bit depth : 8 bits
Scan type : Progressive
Bits/(Pixel*Frame) : 0.157
Stream size : 1.33 GiB (61%)
Title : Enigma
Writing library : x264 core 144 r2525 40bb568
Encoding settings : cabac=1 / ref=12 / deblock=1:-3:-3 / analyse=0x3:0x113 / me=umh / subme=10 / psy=1 / psy_rd=1.02:0.07 / mixed_ref=1 / me_range=32 / chroma_me=1 / trellis=2 / 8x8dct=1 / cqm=0 / deadzone=21,11 / fast_pskip=1 / chroma_qp_offset=-3 / threads=12 / lookahead_threads=3 / sliced_threads=0 / nr=0 / decimate=0 / interlaced=0 / bluray_compat=0 / constrained_intra=0 / bframes=14 / b_pyramid=2 / b_adapt=2 / b_bias=0 / direct=3 / weightb=1 / open_gop=0 / weightp=2 / keyint=240 / keyint_min=23 / scenecut=40 / intra_refresh=0 / rc_lookahead=40 / rc=2pass / mbtree=0 / bitrate=1545 / ratetol=1.0 / qcomp=0.60 / qpmin=0 / qpmax=51 / qpstep=4 / cplxblur=20.0 / qblur=0.5 / vbv_maxrate=50000 / vbv_bufsize=62500 / nal_hrd=none / filler=0 / ip_ratio=1.40 / pb_ratio=1.30 / aq=1:1.00
Language : English
Default : Yes
Forced : No
Color range : Limited
Color primaries : BT.709
Transfer characteristics : BT.709
Matrix coefficients : BT.709

Audio #1
ID : 2
Format : AC-3
Format/Info : Audio Coding 3
Mode extension : CM (complete main)
Format settings, Endianness : Big
Codec ID : A_AC3
Duration : 2 h 7 min
Bit rate mode : Constant
Bit rate : 448 kb/s
Channel(s) : 6 channels
Channel positions : Front: L C R, Side: L R, LFE
Sampling rate : 48.0 kHz
Frame rate : 31.250 FPS (1536 spf)
Compression mode : Lossy
Stream size : 410 MiB (18%)
Title : Dub (Лицензия)
Language : Russian
Default : Yes
Forced : No

Audio #2
ID : 3
Format : AC-3
Format/Info : Audio Coding 3
Mode extension : CM (complete main)
Format settings, Endianness : Big
Codec ID : A_AC3
Duration : 2 h 7 min
Bit rate mode : Constant
Bit rate : 448 kb/s
Channel(s) : 6 channels
Channel positions : Front: L C R, Side: L R, LFE
Sampling rate : 48.0 kHz
Frame rate : 31.250 FPS (1536 spf)
Compression mode : Lossy
Stream size : 410 MiB (18%)
Language : English
Default : No
Forced : No

Text #1
ID : 4
Format : UTF-8
Codec ID : S_TEXT/UTF8
Codec ID/Info : UTF-8 Plain Text
Title : Forced
Language : Russian
Default : Yes
Forced : No

Text #2
ID : 5
Format : UTF-8
Codec ID : S_TEXT/UTF8
Codec ID/Info : UTF-8 Plain Text
Title : Full
Language : Russian
Default : No
Forced : No

Text #3
ID : 6
Format : UTF-8
Codec ID : S_TEXT/UTF8
Codec ID/Info : UTF-8 Plain Text
Language : English
Default : No
Forced : No

Menu
00:00:00.000 : en:00:00:00.000
00:07:06.926 : en:00:07:06.926
00:17:30.883 : en:00:17:30.883
00:26:05.856 : en:00:26:05.856
00:31:14.039 : en:00:31:14.039
00:39:29.075 : en:00:39:29.075
00:46:17.566 : en:00:46:17.566
00:52:11.170 : en:00:52:11.170
00:58:50.360 : en:00:58:50.360
01:05:58.580 : en:01:05:58.580
01:13:01.293 : en:01:13:01.293
01:24:16.301 : en:01:24:16.301
01:31:50.880 : en:01:31:50.880
01:41:10.981 : en:01:41:10.981
01:46:07.611 : en:01:46:07.611
01:56:19.598 : en:01:56:19.598
Релиз от:

Автор релиза: piratbit.org



Скачать Ла-Ла Ленд через торрент http://i90.fastpic.ru/big/2017/0414/d5/ee8e826c89458782e65748bd181fa6d5.png Скачать фильм Ла-Ла Ленд через торрент бесплантно в хорошем качестве Описание: Это история любви старлетки, которая между прослушиваниями подает кофе состоявшимся кинозвездам, и фанатичного джазового ... 8.7 10 15
Info! Золотая раздача, скачанное не засчитывается.
Торрент: Зарегистрирован [2017-05-19 03:11] · скачан: 348 раз
Статус: √ проверено
Размер: 2.18 GB
Как cкачать? Как скачать Ла-Ла Ленд через торрент | UTorrent

28-11-2019 20:33  

Отключить всю рекламу на сайте

    Дорогой пользователь! Огромная просьба, поблагодарите релизера, оцените раздачу и оставьте свои комментарий, если Вы скачали Ла-Ла Ленд через торрент бесплатно! Внесите свою лепту в развитие PiratBit!
    Комментировать посты могут только пользователи прошедшие не сложную регистрацию
    Показать сообщения:    

    Ла-Ла Ленд через торрент
    Скачать бесплатно Ла-Ла Ленд
    Ла-Ла Ленд скачать торрент
    Ла-Ла Ленд смотреть онлайн
    Cкачать фильм Ла-Ла Ленд бесплатно
    Ла-Ла Ленд скачать торрент в хорошем качестве
    Ла-Ла Ленд смотреть онлайн бесплатно в хорошем качестве


    Вы не можете начинать темы
    Вы не можете отвечать на сообщения
    Вы не можете редактировать свои сообщения
    Вы не можете удалять свои сообщения
    Вы не можете голосовать в опросах
    Вы не можете прикреплять файлы к сообщениям
    Вы можете скачивать файлы