1 сезон

3 сезон

iTunes

1

iTunes

DUB Netflix

iTunes

13

1 сезон

RePack

30

Deluxe

pack

Легкие деньги

ВАЖНО

ИГРА 18+

pack

RePack

MK11

RePack

jed

RePack

fifa19

RePack

RDR2

RePack

NEED FOR SPEED™ PAYBACK

4 сезон

9 сезон

Бесстыжие 9 сезон

Все сериалы

все сериалы на PB.wtf

RePack

FAR CRY 5

Anonymous, добрый вечер, мы не успеваем до 1 числа собрать деньги на оплату серверов, помогите нам пожалуйста в это трудное время. В качестве благодарности мы отключим Вам всю рекламу на сайте (укажите свой ник в строку Ваше имя)!

×
  
Magnet ссылка

Дуэль / The Duel (Киран Дарси-Смит) [2016, драма, вестерн, BDRip-AVC] MVO [iTunes] piratbit.org

Дуэль через торрент piratbit.org

Размер: 1.84 GB | Добавлен: 4 года 2 мес. назад | Торрент скачан:269 раз
Скачать  

20-04-2017 22:53 Дуэль Скачать торрент  

Дуэль / The Duel
Год выпуска: 2016
Страна: США
Жанр: драма, вестерн
Продолжительность: 01:50:10
Перевод: Профессиональный многоголосый - [iTunes]
Субтитры: английские

Режиссер: Киран Дарси-Смит

rating

В ролях:

Лиам Хемсворт, Эмори Коэн, Вуди Харрельсон, Алиси Брага, Уильям Сэдлер, Бенедикт Сэмюэл, Сью-Линн Ансари, Рафаэль Сбардж, Кристофер Берри, Хосе Суньига

Описание:

Фильм расскажет о техасском рейнджере Дэвиде, которого заслали во фронтир с целью расследования серии убийств. На месте ему предстоит познакомиться с Авраамом — проповедником, держащим в паническом страхе всю округу.

Качество: BDRip-AVC
Формат: MKV
Видео кодек: H.264
Аудио кодек: AC3

Видео: 1024x428 (2.40:1), 24.000 fps, AVC (H.264), High@L4.1 ~1561 kbps avg, 0.149 bit/pixel
Аудио#1: Русский: 48 kHz, AC3 Dolby Digital, 3/2 (L,C,R,l,r) + LFE ch, ~384.00 kbps avg [Профессиональный многоголосый закадровый)]
Аудио#2: Английский: 48 kHz, AC3 Dolby Digital, 3/2 (L,C,R,l,r) + LFE ch, ~448.00 kbps avg [Оригинал]
скриншот   скриншот   скриншот   скриншот  

Общее
Уникальный идентификатор : 195758646963453699350930079721871444477 (0x9345BE772CC585A3B040AEFE218909FD)
Полное имя : D:The.Duel.2016.BDRip(AVC).mkv
Формат : Matroska
Версия формата : Version 2
Размер файла : 1,84 Гбайт
Продолжительность : 1 ч. 50 м.
Общий поток : 2390 Кбит/сек
Название фильма : The.Duel.2016 #TorpedoUK#
Дата кодирования : UTC 2017-04-20 02:25:49
Программа кодирования : mkvmerge v7.8.0 ('River Man') 32bit built on Apr 3 2015 12:11:22
Библиотека кодирования : libebml v1.3.1 + libmatroska v1.4.2

Видео
Идентификатор : 1
Формат : AVC
Формат/Информация : Advanced Video Codec
Профиль формата : High@L4.1
Параметр CABAC формата : Да
Параметр ReFrames формата : 10 кадров
Идентификатор кодека : V_MPEG4/ISO/AVC
Продолжительность : 1 ч. 50 м.
Битрейт : 1561 Кбит/сек
Ширина : 1024 пикселя
Высота : 428 пикселей
Соотношение сторон : 2,40:1
Режим частоты кадров : Постоянный
Частота кадров : 23,976 (24000/1001) кадра/сек
Цветовое пространство : YUV
Субдискретизация насыщенности : 4:2:0
Битовая глубина : 8 бит
Тип развёртки : Прогрессивная
Бит/(Пиксели*Кадры) : 0.149
Размер потока : 1,16 Гбайт (63%)
Библиотека кодирования : x264 core 146 r2538 121396c
Настройки программы : cabac=1 / ref=10 / deblock=1:-3:-3 / analyse=0x3:0x133 / me=umh / subme=11 / psy=1 / psy_rd=1.00:0.07 / mixed_ref=1 / me_range=48 / chroma_me=1 / trellis=2 / 8x8dct=1 / cqm=0 / deadzone=21,11 / fast_pskip=0 / chroma_qp_offset=-3 / threads=6 / lookahead_threads=1 / sliced_threads=0 / nr=0 / decimate=0 / interlaced=0 / bluray_compat=0 / constrained_intra=0 / bframes=10 / b_pyramid=2 / b_adapt=2 / b_bias=0 / direct=3 / weightb=1 / open_gop=0 / weightp=2 / keyint=240 / keyint_min=23 / scenecut=40 / intra_refresh=0 / rc_lookahead=40 / rc=2pass / mbtree=0 / bitrate=1561 / ratetol=1.0 / qcomp=0.60 / qpmin=0 / qpmax=69 / qpstep=4 / cplxblur=20.0 / qblur=0.5 / vbv_maxrate=50000 / vbv_bufsize=62500 / nal_hrd=none / filler=0 / ip_ratio=1.40 / pb_ratio=1.30 / aq=1:1.00
Язык : English
Default : Да
Forced : Нет
Цветовой диапазон : Limited
Основные цвета : BT.709
Характеристики трансфера : BT.709
Коэффициенты матрицы : BT.709

Аудио #1
Идентификатор : 2
Формат : AC-3
Формат/Информация : Audio Coding 3
Расширение режима : CM (complete main)
Параметр Endianness формата : Big
Идентификатор кодека : A_AC3
Продолжительность : 1 ч. 50 м.
Вид битрейта : Постоянный
Битрейт : 384 Кбит/сек
Каналы : 6 каналов
Расположение каналов : Front: L C R, Side: L R, LFE
Частота : 48,0 КГц
Частота кадров : 31,250 кадров/сек (1536 spf)
Битовая глубина : 16 бит
Метод сжатия : С потерями
Размер потока : 303 Мбайт (16%)
Заголовок : iTunes
Язык : Russian
Default : Да
Forced : Нет

Аудио #2
Идентификатор : 3
Формат : AC-3
Формат/Информация : Audio Coding 3
Расширение режима : CM (complete main)
Параметр Endianness формата : Big
Идентификатор кодека : A_AC3
Продолжительность : 1 ч. 50 м.
Вид битрейта : Постоянный
Битрейт : 448 Кбит/сек
Каналы : 6 каналов
Расположение каналов : Front: L C R, Side: L R, LFE
Частота : 48,0 КГц
Частота кадров : 31,250 кадров/сек (1536 spf)
Битовая глубина : 16 бит
Метод сжатия : С потерями
Размер потока : 353 Мбайт (19%)
Заголовок : Original
Язык : English
Default : Нет
Forced : Нет

Текст
Идентификатор : 4
Формат : UTF-8
Идентификатор кодека : S_TEXT/UTF8
Идентификатор кодека/Информация : UTF-8 Plain Text
Заголовок : Full
Язык : English
Default : Нет
Forced : Нет

Меню
00:00:00.000 : en:Chapter 1
00:06:00.735 : en:Chapter 2
00:14:12.601 : en:Chapter 3
00:19:39.219 : en:Chapter 4
00:28:00.887 : en:Chapter 5
00:33:35.388 : en:Chapter 6
00:39:02.214 : en:Chapter 7
00:45:32.646 : en:Chapter 8
00:53:42.385 : en:Chapter 9
00:59:32.986 : en:Chapter 10
01:10:34.772 : en:Chapter 11
01:21:52.324 : en:Chapter 12
01:24:50.210 : en:Chapter 13
01:29:47.298 : en:Chapter 14
01:41:19.364 : en:Chapter 15
01:44:57.874 : en:Chapter 16

piratbit.org



Скачать Дуэль через торрент http://s020.radikal.ru/i707/1704/03/00253d0bb0cd.jpg Скачать фильм Дуэль через торрент бесплантно в хорошем качестве Описание: Фильм расскажет о техасском рейнджере Дэвиде, которого заслали во фронтир с целью расследования серии убийств. На месте ему ... 10 10 9
Торрент: Зарегистрирован [2017-04-20 22:53] · скачан: 269 раз
Статус: √ проверено
Размер: 1.84 GB
Как cкачать? Как скачать Дуэль через торрент | UTorrent

% Раздел Тема Автор DL S | L
Фильмы 2016 [DVDrip, WEB-DLRip, HDrip] (DUB, MVO) [ 1.41 GB ] Дуэль / The Duel [2016 BDRip] многоголосый Twi7ter Скачать
1 | 0
Фильмы 2016 [DVDrip, WEB-DLRip, HDrip] (DUB, MVO) [ 745 MB ] Дуэль / The Duel [2016 BDRip] MVO bober100 Скачать
1 | 0
Фильмы 2016 [DVDrip, WEB-DLRip, HDrip] (DUB, MVO) [ 1.41 GB ] Дуэль / The Duel [2016 BDRip] MVO bober100 Скачать
1 | 0
Фильмы без перевода [ 18.79 GB ] Дуэль / The Duel [2016 BD Remux Оригинал] smaster Скачать
1 | 0
Фильмы до 2000 г. [ 1.49 GB ] Ловчий Смерти 2: Дуэль Титанов / Deathstalker 2: Duel Of The Titans [1987 DVDRip] dino crisis Скачать
1 | 0

28-11-2019 20:33  

Отключить всю рекламу на сайте


    Дорогой пользователь! Огромная просьба, поблагодарите релизера, оцените раздачу и оставьте свои комментарий, если Вы скачали Дуэль через торрент бесплатно! Внесите свою лепту в развитие PiratBit!
    Комментировать посты могут только пользователи прошедшие не сложную регистрацию
    Показать сообщения:    

    Дуэль через торрент
    Скачать бесплатно Дуэль
    Дуэль скачать торрент
    Дуэль смотреть онлайн
    Cкачать фильм Дуэль бесплатно
    Дуэль скачать торрент в хорошем качестве
    Дуэль смотреть онлайн бесплатно в хорошем качестве


    Вы не можете начинать темы
    Вы не можете отвечать на сообщения
    Вы не можете редактировать свои сообщения
    Вы не можете удалять свои сообщения
    Вы не можете голосовать в опросах
    Вы не можете прикреплять файлы к сообщениям
    Вы можете скачивать файлы