1 сезон

3 сезон

iTunes

1

iTunes

DUB Netflix

iTunes

13

1 сезон

RePack

30

Deluxe

pack

Легкие деньги

ВАЖНО

ИГРА 18+

pack

RePack

MK11

RePack

jed

RePack

fifa19

RePack

RDR2

RePack

NEED FOR SPEED™ PAYBACK

4 сезон

9 сезон

Бесстыжие 9 сезон

Все сериалы

все сериалы на PB.wtf

RePack

FAR CRY 5

Anonymous, доброй ночи, мы не успеваем до 1 числа собрать деньги на оплату серверов, помогите нам пожалуйста в это трудное время. В качестве благодарности мы отключим Вам всю рекламу на сайте (укажите свой ник в строку Ваше имя)!

×
  
Magnet ссылка

Персональный покупатель / Personal Shopper (Оливье Ассайас) [2016 г., триллер, драма, детектив, HDRip, Профессиональный многоголосый "iTunes"] piratbit.org

Персональный покупатель через торрент piratbit.org

Раздают: 1 [ 0 KB/s ]
Размер: 2.07 GB | Добавлен: 4 года 2 мес. назад | Торрент скачан:190 раз
Скачать  

22-04-2017 18:21 Персональный покупатель Скачать торрент  

Персональный покупатель / Personal Shopper
Год выпуска: 2016
Страна: Франция, Германия / CG Cinéma, Vortex Sutra, Sirena Film
Жанр: триллер, драма, детектив
Продолжительность: 01:45:14
Перевод: Профессиональный многоголосый (iTunes)

Режиссер: Оливье Ассайас

rating

В ролях: Кристен Стюарт, Ларс Айдингер, Сигрид Буази, Андерс Даниелсен Лье, Ty Olwin, Хамму Грайа, Нора фон Вальдштеттен, Бенжамин Биолэй, Одри Бонне, Паскаль Рамберт

Описание: Молодая американка Морин, переехавшая в Париж, помогает знаменитостям подбирать наряды. С миром высокой моды она на ты. Её жизнь кажется мечтой, но всё усложняет паранормальная особенность — Морин умеет общаться с призраками.

Качество: HDRip
Формат: AVI
Видео кодек: XviD
Аудио кодек: AC3
Видео: 720x304 (2.37:1), 23.976 fps, XviD build 50 ~2419 kbps avg, 0.46 bit/pixel
Аудио: 48 kHz, AC3 Dolby Digital, 3/2 (L,C,R,l,r) + LFE ch, ~384 kbps

Общее
Полное имя : F:\ФИЛЬМЫ\Персональный покупатель.2016.HDRip.avi
Формат : AVI
Формат/Информация : Audio Video Interleave
Профиль формата : OpenDML
Размер файла : 2,07 Гбайт
Продолжительность : 1 ч. 45 м.
Общий поток : 2811 Кбит/сек
Название фильма : Персональный покупатель.2016.HDRip.avi
Режиссёр : Rip by coc900
Программа кодирования : VirtualDubMod 1.5.10.3 | www.virtualdub-fr.org || (build 2550/release)

Видео
Идентификатор : 0
Формат : MPEG-4 Visual
Профиль формата : Advanced Simple@L5
Параметр BVOP формата : 1
Параметр QPel формата : Нет
Параметр GMC формата : Без точки перехода
Параметр матрицы формата : Default (MPEG)
Идентификатор кодека : XVID
Идентификатор кодека/Подсказка : XviD
Продолжительность : 1 ч. 45 м.
Битрейт : 2415 Кбит/сек
Ширина : 720 пикселей
Высота : 304 пикселя
Соотношение сторон : 2,35:1
Частота кадров : 23,976 (24000/1001) кадра/сек
Цветовое пространство : YUV
Субдискретизация насыщенности : 4:2:0
Битовая глубина : 8 бит
Тип развёртки : Прогрессивная
Метод сжатия : С потерями
Бит/(Пиксели*Кадры) : 0.460
Размер потока : 1,77 Гбайт (86%)
Библиотека кодирования : XviD 1.2.1 (UTC 2008-12-04)

Аудио
Идентификатор : 1
Формат : AC-3
Формат/Информация : Audio Coding 3
Параметр Endianness формата : Big
Идентификатор кодека : 2000
Продолжительность : 1 ч. 45 м.
Вид битрейта : Постоянный
Битрейт : 384 Кбит/сек
Каналы : 6 каналов
Расположение каналов : Front: L C R, Side: L R, LFE
Частота : 48,0 КГц
Частота кадров : 31,250 кадров/сек (1536 spf)
Битовая глубина : 16 бит
Метод сжатия : С потерями
Размер потока : 289 Мбайт (14%)
Выравнивание : Разделение по промежуткам
Продолжительность промежутка : 42 мс. (1,00 видеокадр)
Время предзагрузки промежутка : 500 мс.
ServiceKind/String : Complete Main

piratbit.org



Скачать Персональный покупатель через торрент https://pic1.kartinco.top/images/11/1sbpc.jpg Скачать фильм Персональный покупатель через торрент бесплантно в хорошем качестве Описание: Молодая американка Морин, переехавшая в Париж, помогает знаменитостям подбирать наряды. С миром высокой моды она на ты. Её жизнь ... 7.5 10 8
Торрент: Зарегистрирован [2017-04-22 18:21] · скачан: 190 раз
Статус: √ проверено
Размер: 2.07 GB
Как cкачать? Как скачать Персональный покупатель через торрент | UTorrent

% Раздел Тема Автор DL S | L
Фильмы без перевода [ 26.39 GB ] Персональный покупатель / Personal Shopper [2016 BD Remux] [Оригинал-ENG] smaster Скачать
1 | 0
Фильмы 2016 [DVDrip, WEB-DLRip, HDrip] (DUB, MVO) [ 1.41 GB ] Персональный покупатель / Personal Shopper [2016 BDRip] многоголосый Twi7ter Скачать
1 | 0
Фильмы (WEB-DL 720p, 1080p) [ 3.57 GB ] Персональный покупатель / Personal Shopper [2016 WEB-DL 720p] MVO batonchik Скачать
1 | 0
Фильмы 2016 [DVDrip, WEB-DLRip, HDrip] (DUB, MVO) [ 1.37 GB ] Персональный покупатель / Personal Shopper [2016 WEB-DLRip] MVO bober100 Скачать
1 | 0
Фильмы (WEB-DL 720p, 1080p) [ 3.96 GB ] Персональный покупатель / Personal Shopper [2016 WEB-DL 1080p] MVO bober100 Скачать
1 | 0

28-11-2019 20:33  

Отключить всю рекламу на сайте

23-04-2017 18:40 Персональный покупатель Скачать торрент  

Пыталась стать вампиром в течении 4 лет, в итоге разговаривать начала с призраками. УжОс. Надо глянуть.piratbit.org



    Дорогой пользователь! Огромная просьба, поблагодарите релизера, оцените раздачу и оставьте свои комментарий, если Вы скачали Персональный покупатель через торрент бесплатно! Внесите свою лепту в развитие PiratBit!
    Комментировать посты могут только пользователи прошедшие не сложную регистрацию
    Показать сообщения:    

    Персональный покупатель через торрент
    Скачать бесплатно Персональный покупатель
    Персональный покупатель скачать торрент
    Персональный покупатель смотреть онлайн
    Cкачать фильм Персональный покупатель бесплатно
    Персональный покупатель скачать торрент в хорошем качестве
    Персональный покупатель смотреть онлайн бесплатно в хорошем качестве


    Вы не можете начинать темы
    Вы не можете отвечать на сообщения
    Вы не можете редактировать свои сообщения
    Вы не можете удалять свои сообщения
    Вы не можете голосовать в опросах
    Вы не можете прикреплять файлы к сообщениям
    Вы можете скачивать файлы