1 сезон

3 сезон

iTunes

1

iTunes

DUB Netflix

iTunes

13

1 сезон

RePack

30

Deluxe

pack

Легкие деньги

ВАЖНО

ИГРА 18+

pack

RePack

MK11

RePack

jed

RePack

fifa19

RePack

RDR2

RePack

NEED FOR SPEED™ PAYBACK

4 сезон

9 сезон

Бесстыжие 9 сезон

Все сериалы

все сериалы на PB.wtf

RePack

FAR CRY 5

Anonymous, добрый день, мы не успеваем до 1 числа собрать деньги на оплату серверов, помогите нам пожалуйста в это трудное время. В качестве благодарности мы отключим Вам всю рекламу на сайте (укажите свой ник в строку Ваше имя)!

×
  
Magnet ссылка

Вне правил / Rules Don't Apply (Уоррен Битти) [2016 г., драма, мелодрама, комедия, HDRip, Профессиональный многоголосый закадровый "iTunes"] piratbit.org

Вне правил через торрент piratbit.org

Размер: 2.18 GB | Добавлен: 4 года 1 мес. назад | Торрент скачан:184 раза
Скачать  

23-04-2017 07:44 Вне правил Скачать торрент  

Вне правил / Rules Don't Apply
Год выпуска: 2016
Страна: США / Regency Enterprises, RatPac Entertainment, Worldview Entertainment
Жанр: драма, мелодрама, комедия
Продолжительность: 02:07:48
Перевод: Профессиональный многоголосый закадровый (iTunes)
Субтитры: Русские форсированные - вшитые
Режиссер: Уоррен Битти

rating

В ролях: Уоррен Битти, Лили Коллинз, Олден Эренрайк, Аннетт Бенинг, Мэттью Бродерик, Алек Болдуин, Хейли Беннетт, Кэндис Берген, Дэбни Коулмен, Стив Куган

Описание: Фильм рассказывает о молодой женщине, влюбляющейся в эксцентричного миллионера Говарда Хьюза в самый разгар своих отношений с его водителем.

Качество: HDRip
Формат: AVI
Видео кодек: XviD
Аудио кодек: AC3
Видео: 720x384 (1.88:1), 23.976 fps, XviD build 50 ~2049 kbps avg, 0.31 bit/pixel
Аудио: 48 kHz, AC3 Dolby Digital, 3/2 (L,C,R,l,r) + LFE ch, ~384 kbps

Общее
Полное имя : F:\ФИЛЬМЫ\Вне правил.2O16.HDRip (2).avi
Формат : AVI
Формат/Информация : Audio Video Interleave
Профиль формата : OpenDML
Размер файла : 2,18 Гбайт
Продолжительность : 2 ч. 7 м.
Общий поток : 2440 Кбит/сек
Программа кодирования : VirtualDubMod 1.5.10.3 | www.virtualdub-fr.org || (build 2550/release)
Библиотека кодирования : VirtualDubMod build 2550/release

Видео
Идентификатор : 0
Формат : MPEG-4 Visual
Профиль формата : Advanced Simple@L5
Параметр BVOP формата : 1
Параметр QPel формата : Нет
Параметр GMC формата : Без точки перехода
Параметр матрицы формата : Default (MPEG)
Идентификатор кодека : XVID
Идентификатор кодека/Подсказка : XviD
Продолжительность : 2 ч. 7 м.
Битрейт : 2044 Кбит/сек
Ширина : 720 пикселей
Высота : 384 пикселя
Соотношение сторон : 1,85:1
Частота кадров : 23,976 (24000/1001) кадра/сек
Цветовое пространство : YUV
Субдискретизация насыщенности : 4:2:0
Битовая глубина : 8 бит
Тип развёртки : Прогрессивная
Метод сжатия : С потерями
Бит/(Пиксели*Кадры) : 0.308
Размер потока : 1,82 Гбайт (84%)
Библиотека кодирования : XviD 1.2.1 (UTC 2008-12-04)

Аудио
Идентификатор : 1
Формат : AC-3
Формат/Информация : Audio Coding 3
Параметр Endianness формата : Big
Идентификатор кодека : 2000
Продолжительность : 2 ч. 7 м.
Вид битрейта : Постоянный
Битрейт : 384 Кбит/сек
Каналы : 6 каналов
Расположение каналов : Front: L C R, Side: L R, LFE
Частота : 48,0 КГц
Частота кадров : 31,250 кадров/сек (1536 spf)
Битовая глубина : 16 бит
Метод сжатия : С потерями
Размер потока : 351 Мбайт (16%)
Выравнивание : Разделение по промежуткам
Продолжительность промежутка : 42 мс. (1,00 видеокадр)
Время предзагрузки промежутка : 500 мс.
ServiceKind/String : Complete Main

piratbit.org



Скачать Вне правил через торрент https://pic1.kartinco.top/images/11/qrdpn.jpg Скачать фильм Вне правил через торрент бесплантно в хорошем качестве Описание: Фильм рассказывает о молодой женщине, влюбляющейся в эксцентричного миллионера Говарда Хьюза в самый разгар своих отношений с его ... 8.9 10 8
Торрент: Зарегистрирован [2017-04-23 17:53] · скачан: 184 раз
Статус: √ проверено
Размер: 2.18 GB
Как cкачать? Как скачать Вне правил через торрент | UTorrent

28-11-2019 20:33  

Отключить всю рекламу на сайте

23-04-2017 17:56 Вне правил Скачать торрент  

Релиз обновлен ! Добавлены Субтитры: Русские форсированные - вшитые ! Просьба перекачать торрнт файл ! piratbit.org



    Дорогой пользователь! Огромная просьба, поблагодарите релизера, оцените раздачу и оставьте свои комментарий, если Вы скачали Вне правил через торрент бесплатно! Внесите свою лепту в развитие PiratBit!
    Комментировать посты могут только пользователи прошедшие не сложную регистрацию
    Показать сообщения:    

    Вне правил через торрент
    Скачать бесплатно Вне правил
    Вне правил скачать торрент
    Вне правил смотреть онлайн
    Cкачать фильм Вне правил бесплатно
    Вне правил скачать торрент в хорошем качестве
    Вне правил смотреть онлайн бесплатно в хорошем качестве


    Вы не можете начинать темы
    Вы не можете отвечать на сообщения
    Вы не можете редактировать свои сообщения
    Вы не можете удалять свои сообщения
    Вы не можете голосовать в опросах
    Вы не можете прикреплять файлы к сообщениям
    Вы можете скачивать файлы