1 сезон

3 сезон

iTunes

1

iTunes

DUB Netflix

iTunes

13

1 сезон

RePack

30

Deluxe

pack

Легкие деньги

ВАЖНО

ИГРА 18+

pack

RePack

MK11

RePack

jed

RePack

fifa19

RePack

RDR2

RePack

NEED FOR SPEED™ PAYBACK

4 сезон

9 сезон

Бесстыжие 9 сезон

Все сериалы

все сериалы на PB.wtf

RePack

FAR CRY 5

Anonymous, доброй ночи, мы не успеваем до 1 числа собрать деньги на оплату серверов, помогите нам пожалуйста в это трудное время. В качестве благодарности мы отключим Вам всю рекламу на сайте (укажите свой ник в строку Ваше имя)!

×
  
Magnet ссылка

Обитель зла: Последняя глава / Resident Evil: The Final Chapter (Пол У. С. Андерсон) [2016, ужасы, фантастика, боевик, триллер, BDRip-AVC] Дубляж [Лицезия] - ExKinoRay piratbit.org

Обитель зла: Последняя глава через торрент piratbit.org

Размер: 1.93 GB | Добавлен: 4 года 1 мес. назад | Торрент скачан:560 раз
Скачать  

27-04-2017 03:33 Обитель зла: Последняя глава Скачать торрент  

Информация о фильме
Название: Обитель зла: Последняя глава
Оригинальное название: Resident Evil: The Final Chapter
Год выпуска: 2016
Выпущено: Франция, Германия, Канада, Австралия, Capcom Entertainment, Impact Pictures, Screen Gems
Жанр: Ужасы, фантастика, боевик, триллер
Продолжительность: 01:46:40
Перевод: Дублированный | Лицензия
Режиссер: Пол У. С. Андерсон
В ролях: Милла Йовович, Иэн Глен, Эли Лартер, Шон Робертс, Оуэн Мэкен, Фрайзер Джеймс, Руби Роуз, Уильям Леви, Рола, Эвер Андерсон, Джун Ки Ли

Описание: Действия фильма разворачиваются с того момента, на котором закончилась предыдущая часть. После того как Вескер предал Элис в Вашингтоне, конец истории человечества стал еще ближе. Элис — последняя надежда на спасение мира. Она должна вернуться к точке отсчета, туда, где все и началось — город Раккун-Сити, где корпорация «Амбрелла» готовится к финальной атаке по тем, кому удалось выжить. В гонке со временем Элис вооружится до зубов и объединится с друзьями и теми, кого не ожидала увидеть в роли своих союзников. Вместе они будут биться против армии мертвецов и новых чудовищных мутантов. Находясь под угрозой потери своих способностей и готовясь к неминуемой атаке корпорации, Элис столкнется с еще более трудными проблемами, а человечество тем временем будет находиться на грани гибели

rating

Файл
Качество: BDRip (AVC)
Видео: MPEG-4 AVC, , 1024x426 (2.40:1), 23.976 fps, ~1695 kbps avg, 0.162 bit/pixel
Аудио #1: AC-3, 48.0 KHz, 6 ch, 448 Kbps, CBR (Russian)
Аудио #2: AC-3, 48.0 KHz, 6 ch, 448 Kbps, CBR (English)
Субтитры: Русские (forced, full), английские
General
Unique ID : 226343238282663533879241445342474864599 (0xAA481F3D7A2186968B9E7DE7C95F07D7)
Complete name : D:\Resident.Evil.The.Final.Chapter.2016.D.BDRip.AVC.ExKinoRay.mkv
Format : Matroska
Format version : Version 2
File size : 1.93 GiB
Duration : 1 h 46 min
Overall bit rate : 2 593 kb/s
Movie name : Resident Evil: The Final Chapter (2016) from ExKinoRay
Encoded date : UTC 2017-04-29 18:34:55
Writing application : mkvmerge v5.8.0 ('No Sleep / Pillow') built on Sep 2 2012 15:37:04
Writing library : libebml v1.2.3 + libmatroska v1.3.0

Video
ID : 1
Format : AVC
Format/Info : Advanced Video Codec
Format profile : High@L4.1
Format settings, CABAC : Yes
Format settings, ReFrames : 14 frames
Codec ID : V_MPEG4/ISO/AVC
Duration : 1 h 46 min
Bit rate : 1 695 kb/s
Width : 1 024 pixels
Height : 426 pixels
Display aspect ratio : 2.40:1
Frame rate mode : Constant
Frame rate : 23.976 (24000/1001) FPS
Color space : YUV
Chroma subsampling : 4:2:0
Bit depth : 8 bits
Scan type : Progressive
Bits/(Pixel*Frame) : 0.162
Stream size : 1.23 GiB (63%)
Title : Enigma
Writing library : x264 core 144 r2525 40bb568
Encoding settings : cabac=1 / ref=14 / deblock=1:-3:-3 / analyse=0x3:0x113 / me=umh / subme=10 / psy=1 / psy_rd=1.03:0.07 / mixed_ref=1 / me_range=32 / chroma_me=1 / trellis=2 / 8x8dct=1 / cqm=0 / deadzone=21,11 / fast_pskip=1 / chroma_qp_offset=-3 / threads=12 / lookahead_threads=3 / sliced_threads=0 / nr=0 / decimate=1 / interlaced=0 / bluray_compat=0 / constrained_intra=0 / bframes=11 / b_pyramid=2 / b_adapt=2 / b_bias=0 / direct=3 / weightb=1 / open_gop=0 / weightp=2 / keyint=240 / keyint_min=23 / scenecut=40 / intra_refresh=0 / rc_lookahead=40 / rc=2pass / mbtree=0 / bitrate=1695 / ratetol=1.0 / qcomp=0.61 / qpmin=0 / qpmax=51 / qpstep=4 / cplxblur=20.0 / qblur=0.5 / vbv_maxrate=50000 / vbv_bufsize=62500 / nal_hrd=none / filler=0 / ip_ratio=1.40 / pb_ratio=1.30 / aq=1:0.80
Language : English
Default : Yes
Forced : No
Color range : Limited
Color primaries : BT.709
Transfer characteristics : BT.709
Matrix coefficients : BT.709

Audio #1
ID : 2
Format : AC-3
Format/Info : Audio Coding 3
Mode extension : CM (complete main)
Format settings, Endianness : Big
Codec ID : A_AC3
Duration : 1 h 46 min
Bit rate mode : Constant
Bit rate : 448 kb/s
Channel(s) : 6 channels
Channel positions : Front: L C R, Side: L R, LFE
Sampling rate : 48.0 kHz
Frame rate : 31.250 FPS (1536 spf)
Compression mode : Lossy
Stream size : 342 MiB (17%)
Title : Dub (Blu-Ray CEE)
Language : Russian
Default : Yes
Forced : No

Audio #2
ID : 3
Format : AC-3
Format/Info : Audio Coding 3
Mode extension : CM (complete main)
Format settings, Endianness : Big
Codec ID : A_AC3
Duration : 1 h 46 min
Bit rate mode : Constant
Bit rate : 448 kb/s
Channel(s) : 6 channels
Channel positions : Front: L C R, Side: L R, LFE
Sampling rate : 48.0 kHz
Frame rate : 31.250 FPS (1536 spf)
Compression mode : Lossy
Stream size : 342 MiB (17%)
Language : English
Default : No
Forced : No

Text #1
ID : 4
Format : UTF-8
Codec ID : S_TEXT/UTF8
Codec ID/Info : UTF-8 Plain Text
Title : Forced
Language : Russian
Default : Yes
Forced : No

Text #2
ID : 5
Format : UTF-8
Codec ID : S_TEXT/UTF8
Codec ID/Info : UTF-8 Plain Text
Title : Full
Language : Russian
Default : No
Forced : No

Text #3
ID : 6
Format : UTF-8
Codec ID : S_TEXT/UTF8
Codec ID/Info : UTF-8 Plain Text
Language : English
Default : No
Forced : No

Menu
00:00:00.000 : en:Chapter 01
00:05:39.339 : en:Chapter 02
00:11:18.177 : en:Chapter 03
00:17:00.102 : en:Chapter 04
00:22:36.146 : en:Chapter 05
00:27:21.640 : en:Chapter 06
00:33:38.474 : en:Chapter 07
00:40:47.820 : en:Chapter 08
00:46:36.126 : en:Chapter 09
00:53:18.778 : en:Chapter 10
01:03:18.669 : en:Chapter 11
01:10:47.826 : en:Chapter 12
01:15:37.574 : en:Chapter 13
01:22:57.806 : en:Chapter 14
01:28:32.765 : en:Chapter 15
01:35:07.159 : en:Chapter 16
Релиз от:

Автор релиза: piratbit.org



Скачать Обитель зла: Последняя глава через торрент http://s020.radikal.ru/i707/1703/dc/761c2f9a0d7f.jpg Скачать фильм Обитель зла: Последняя глава через торрент бесплантно в хорошем качестве Описание: Действия фильма разворачиваются с того момента, на котором закончилась предыдущая часть. После того как Вескер предал Элис в ... 9.4 10 14
Info! Золотая раздача, скачанное не засчитывается.
Торрент: Зарегистрирован [2017-04-29 20:01] · скачан: 560 раз
Статус: √ проверено
Размер: 1.93 GB
Как cкачать? Как скачать Обитель зла: Последняя глава через торрент | UTorrent

28-11-2019 20:33  

Отключить всю рекламу на сайте

    Дорогой пользователь! Огромная просьба, поблагодарите релизера, оцените раздачу и оставьте свои комментарий, если Вы скачали Обитель зла: Последняя глава через торрент бесплатно! Внесите свою лепту в развитие PiratBit!
    Комментировать посты могут только пользователи прошедшие не сложную регистрацию
    Показать сообщения:    

    Обитель зла: Последняя глава через торрент
    Скачать бесплатно Обитель зла: Последняя глава
    Обитель зла: Последняя глава скачать торрент
    Обитель зла: Последняя глава смотреть онлайн
    Cкачать фильм Обитель зла: Последняя глава бесплатно
    Обитель зла: Последняя глава скачать торрент в хорошем качестве
    Обитель зла: Последняя глава смотреть онлайн бесплатно в хорошем качестве


    Вы не можете начинать темы
    Вы не можете отвечать на сообщения
    Вы не можете редактировать свои сообщения
    Вы не можете удалять свои сообщения
    Вы не можете голосовать в опросах
    Вы не можете прикреплять файлы к сообщениям
    Вы можете скачивать файлы