1 сезон

1 сезон

iTunes

1

iTunes

Кинопоиск HD

iTunes

13

1 сезон

RePack

30

Deluxe

ВАЖНО

ИГРА 18+

pack

RePack

MK11
pack

Легкие деньги

RePack

jed

RePack

fifa19

RePack

RDR2

RePack

NEED FOR SPEED™ PAYBACK

4 сезон

9 сезон

Бесстыжие 9 сезон

Все сериалы

все сериалы на PB.wtf

RePack

FAR CRY 5
  
Magnet ссылка

Фредди против Джейсона / Freddy vs. Jason (Ронни Ю / Ronny Yu) [2003 г., Ужасы, Боевик, Триллер, Фэнтези, Приключения, HDRip] piratbit.org

Фредди против Джейсона через торрент piratbit.org

Размер: 746 MB | Добавлен: 10 лет назад | Торрент скачан:68 раз
Скачать  

04-10-2010 13:28 Фредди против Джейсона Скачать торрент  


Фредди против Джейсона / Freddy vs. Jason
Год выпуска: 2003
Страна: США / Италия, New Line Cinema
Жанр: Ужасы, Боевик, Триллер, Фэнтези, Приключения
Продолжительность: 1:37:16
Перевод: Профессиональный (полное дублирование)
Русские субтитры: нет
Режиссер: Ронни Ю / Ronny Yu

В ролях: Роберт Инглунд, Кен Кирзингер, Моника Кеена, Джейсон Риттер, Келли Роулэнд, Крис Маркетт, Брендан Флетчер, Кэтрин Изабелль, Локлин Манро, Кайл Лэбин
[img]http:// СПАМ 5.8/10 (37,612 votes)
Описание:
Фредди Крюгер доведен до отчаяния: он больше не может убивать. Лишь используя неуклюжего серийного убийцу Джейсона Вурхиса, Фредди удается истреблять детей с улицы Вязов. Но когда Джейсон начинает понимать, что им попросту манипулируют, планы Фредди готовы рухнуть. Теперь дело за тинейджерами Уиллом, Лори и Кией. Каким-то образом им надо заставить Джейсона раз и навсегда убить Фредди Крюгера.

Качество: HDRip
Формат: AVI
Видео кодек: XviD
Аудио кодек: MP3
Видео: 720x304, 934Kbps, 23.98fps, 0.178 b/p
Аудио: 128 kbps, 2 ch, 48 khz [Russian]

Format : AVI
Format/Info : Audio Video Interleave
File size : 746 MiB
Duration : 1h 37mn
Overall bit rate : 1 072 Kbps
Writing application : VirtualDubMod 1.5.10.2 (build 2540/release)
Writing library : VirtualDubMod build 2540/release

Video
ID : 0
Format : MPEG-4 Visual
Format profile : Advanced Simple@L5
Format settings, BVOP : Yes
Format settings, QPel : No
Format settings, GMC : No warppoints
Format settings, Matrix : Default (MPEG)
Codec ID : XVID
Codec ID/Hint : XviD
Duration : 1h 37mn
Bit rate : 935 Kbps
Width : 720 pixels
Height : 304 pixels
Display aspect ratio : 2.35:1
Frame rate : 23.976 fps
Resolution : 8 bits
Colorimetry : 4:2:0
Scan type : Progressive
Bits/(Pixel*Frame) : 0.178
Stream size : 650 MiB (87%)
Writing library : XviD 1.2.1 (UTC 2008-12-04)

Audio
ID : 1
Format : MPEG Audio
Format version : Version 1
Format profile : Layer 3
Codec ID : 55
Codec ID/Hint : MP3
Duration : 1h 37mn
Bit rate mode : Constant
Bit rate : 128 Kbps
Channel(s) : 2 channels
Sampling rate : 48.0 KHz
Stream size : 89.1 MiB (12%)
Alignment : Aligned on interleaves
Interleave, duration : 42 ms (1.00 video frame)
Interleave, preload duration : 504 ms
Writing library : LAME3.98r
Encoding settings : -m s -V 4 -q 2 -lowpass 17 -b 128
piratbit.org



Скачать Фредди против Джейсона через торрент http://i6.fastpic.ru/big/2010/0505/c2/a7976e94b5b863f06ff4904678028dc2.jpg Скачать фильм Фредди против Джейсона через торрент бесплантно в хорошем качестве Описание: Фредди Крюгер доведен до отчаяния: он больше не может убивать. Лишь используя неуклюжего серийного убийцу Джейсона Вурхиса, ... 10 10 2
Info! Золотая раздача, скачанное не засчитывается.
Торрент: Зарегистрирован [2010-10-04 13:28] · скачан: 68 раз
Статус: √ проверено
Размер: 746 MB
Как cкачать? Как скачать Фредди против Джейсона через торрент | UTorrent

% Раздел Тема Автор DL S | L
Фильмы [HD 720p, 1080p] (Хороший звук DUB, MVO) [ 5.48 GB ] Фредди против Джейсона / Freddy vs. Jason [2003 BDRip-HEVC 1080p ] 3xAVO+DUB [] bober100 Скачать
2 | 0
Фильмы (BDRip, HDrip-AVC) (48-60 fps) [ 3.72 GB ] Фредди против Джейсона / Freddy vs. Jason [2003 Италия BDRip-AVC / 60fps DUB] от R.G. HD-Films Ressident Скачать
1 | 0
Фильмы [HD 720p, 1080p] (Хороший звук DUB, MVO) [ 19.32 GB ] Фредди против Джейсона / Freddy vs. Jason [2003 BDRip 1080p DUB DVO AVO] кэп Скачать
1 | 0
Фильмы 2001-2005 [ 1.46 GB ] Фредди против Джейсона / Freddy vs. Jason [2003 BDRip] DUB |лицензия| Mr. Freeman Скачать
2 | 0
Фильмы с авторской озвучкой [ 1.46 GB ] Фредди против Джейсона / Freddy vs. Jason [2003 HDRip] AVO [Гаврилов] Anonymous Скачать
1 | 0


Последний раз редактировалось: Dima100kg (2010-10-04 13:38), всего редактировалось 1 раз

28-11-2019 20:33  

Отключить всю рекламу на сайте

04-10-2010 13:32 Фредди против Джейсона Скачать торрент  

Dima100kg
Скриншоты не соответствуют заявленному разрешению, на сринах 640px × 270px .
Заменить.piratbit.org



04-10-2010 14:15 Фредди против Джейсона Скачать торрент  

Спасибо скачаю)) давно не смотрелpiratbit.org



04-10-2010 14:33 Фредди против Джейсона Скачать торрент  

Ghost10
Всегда пожалуйста wink
Сам захотел на днях посмотреть, вот качнул, глянул, хороший фильм
piratbit.org



04-10-2010 14:42 Фредди против Джейсона Скачать торрент  

И за скорость спасибо )
Скачаю помогу с раздачейpiratbit.org



04-10-2010 15:47 Фредди против Джейсона Скачать торрент  

так себе.piratbit.org



04-10-2010 15:56 Фредди против Джейсона Скачать торрент  

webwebus писал(а):

сори за флуд
а кто победил?в лс напишите

и мне в лс напишите))) и еще лучше под спойлером тут)piratbit.org



04-10-2010 16:52 Фредди против Джейсона Скачать торрент  

polyana писал(а):

webwebus писал(а):

сори за флуд
а кто победил?в лс напишите

и мне в лс напишите))) и еще лучше под спойлером тут)

победила дружба, а фильм хороший, спасибоpiratbit.org



04-10-2010 17:39 Фредди против Джейсона Скачать торрент  

Просто скачайте, посмотрите, конец супер)

sashkli
Всегда пожалуйста :ad:
piratbit.org



    Дорогой пользователь! Огромная просьба, поблагодарите релизера, оцените раздачу и оставьте свои комментарий, если Вы скачали Фредди против Джейсона через торрент бесплатно! Внесите свою лепту в развитие PiratBit!
    Комментировать посты могут только пользователи прошедшие не сложную регистрацию
    Показать сообщения:    

    Фредди против Джейсона через торрент
    Скачать бесплатно Фредди против Джейсона
    Фредди против Джейсона скачать торрент
    Фредди против Джейсона смотреть онлайн
    Cкачать фильм Фредди против Джейсона бесплатно
    Фредди против Джейсона скачать торрент в хорошем качестве
    Фредди против Джейсона смотреть онлайн бесплатно в хорошем качестве


    Вы не можете начинать темы
    Вы не можете отвечать на сообщения
    Вы не можете редактировать свои сообщения
    Вы не можете удалять свои сообщения
    Вы не можете голосовать в опросах
    Вы не можете прикреплять файлы к сообщениям
    Вы можете скачивать файлы