Death Stranding+DLC+АВТОАКТИВАЦИЯ

iTunes

iTunes

iTunes

1

iTunes

iTunes

iTunes

iTunes

iTunes

30
pack

$ от Little Big

ВАЖНО

!!Акция!!

Alien_RageХит недели

RePack

Resident Evil 21

ИГРА 18+

pack

RePack

jed

!!Акция!!

Alien_Rage

RePack

fifa19

RePack

Assassins Creed: Odyssey

RePack

NEED FOR SPEED™ PAYBACK

4 сезон

9 сезон

Бесстыжие 9 сезон

Все сериалы

все сериалы на PB.wtf

RePack

FAR CRY 5
  

Вышибалы / Knockaround Guys (Брайан Коппельман, Дэвид Левиен / Brian Koppelman, David Levien) [2001, США, триллер, комедия, драма, криминал, BDRip 720p] piratbit.org

Вышибалы через торрент piratbit.org

Размер: 4.65 GB | Добавлен: 9 лет 9 мес. назад | Торрент скачан:378 раз
Скачать  

04-10-2010 14:52 Вышибалы Скачать торрент  

Вышибалы / Knockaround Guys
Год выпуска: 2001
Страна: США
Слоган: «If they don't finish the job, their fathers will finish them»
Жанр: триллер, комедия, драма, криминал
Продолжительность: 01:31:36
Перевод: Профессиональный (многоголосый, закадровый)R5
Режиссер: Брайан Коппельман / Brian Koppelman, Дэвид Левиен / David Levien
Сценарий: Брайан Коппельман / Brian Koppelman, Дэвид Левиен / David Levien
Продюсер: Лоуренс Бендер / Lawrence Bender, Майкл Де Лука / Michael De Luca, Джули Киркхэм / Julie Kirkham, Брайан Коппельман / Brian Koppelman, Дэвид Левиен / David Levien
Оператор: Том Ричмонд / Tom Richmond
Композитор: Клинт Мэнселл / Clint Mansell
В ролях: Бэрри Пеппер (Matty Demaret), Эндрю Дэволи (Chris Scarpa), Сет Грин (Johnny Marbles), Вин Дизель (Taylor Reese), Джон Малкович (Teddy Deserve), Артур Дж. Наскарелла (Billy Clueless), Том Нунен (Sheriff Decker), Николас Паско (Freddy the Watch), Шоун Дойл (Deputy Ward), Кевин Гейдж (Brucker), Деннис Хоппер (Benny Chains), Эндрю Френсис (Matty at 13)
Сборы в США: $11 715 637
Сборы в мире: $14 069 721
Мировая премьера: 8 сентября 2001
Описание: Для сына босса мафии ошибки и чувства - непростительная роскошь. Мэтти пришлось дорого заплатить, чтобы понять это. После долгих поисков «законной» работы он обращается к отцу, и тот дает ему шанс…
Друг детства Мэтти, кокаинист Марблс, теряет сумку с деньгами. Деньги попадают к двум обкуренным тинэйджерам, живущим в захолустном западном городишке. Дело-табак! На помощь Мэтти приходят его старинные друзья, один из которых - Тэйлор - разрабатывает план активных действий по возвращению утраченных денежных средств.
Но городок контролирует нечистый на руку шериф и его помощник, и шансы друзей вернуть деньги становятся невелики. Дядя Тедди приезжает в город, чтобы «устаканить» ситуацию и объяснить Мэтти раз и навсегда, что значит «быть членом семьи».
Рейтинг
kinopoisk.ru: 6.885 (1 199)
imdb.com: 6.00 (11 050)
MPAA: R - Лицам до 17 лет обязательно присутствие взрослого
Качество: BDRip
Формат: MKV
Видео кодек: H.264
Аудио кодек: AC3, DTS
Видео: AVC; 1280x536 (2.35:1); 5170 Kbps; 23,976 fps; 0,314 bpp
Аудио №1: Russian;448 Kbps; CBR; 6 ch
Аудио №2: 1509 Kbps; CBR; 6 ch; 24 bit
Субтитры №1: Russian
Субтитры №2: English


Код:

General
Complete name : Knockaround.Guys.2001.720p.BluRay.AC3.DTS.RUS.ENG.x264-REPTiLE.mkv
Format : Matroska
File size : 4.65 GiB
Duration : 1h 31mn
Overall bit rate : 7 273 Kbps
Movie name : Knockaround.Guys.2001.720p.BluRay.DTS.x264-REPTiLE
Encoded date : UTC 2010-08-09 14:58:06
Writing application : mkvmerge v4.2.0 ('No Talking') сборка от Aug 1 2010 22:50:30
Writing library : libebml v1.0.0 + libmatroska v1.0.0
Video #1
ID : 1
Format : AVC
Format/Info : Advanced Video Codec
Format profile : High@L4.1
Format settings, CABAC : Yes
Format settings, ReFrames : 9 frames
Muxing mode : Container profile=Unknown@4.1
Codec ID : V_MPEG4/ISO/AVC
Duration : 1h 31mn
Bit rate : 5 320 Kbps
Width : 1 280 pixels
Height : 536 pixels
Display aspect ratio : 2.35:1
Frame rate : 23.976 fps
Resolution : 8 bits
Colorimetry : 4:2:0
Scan type : Progressive
Bits/(Pixel*Frame) : 0.323
Stream size : 3.31 GiB (71%)
Title : Knockaround Guys 1080p x264 @ 5320kbps
Writing library : x264 core 98 r1649 20cbe10
Encoding settings : cabac=1 / ref=9 / deblock=1:-2:-1 / analyse=0x3:0x133 / me=esa / subme=9 / psy=1 / psy_rd=1.00:0.00 / mixed_ref=1 / me_range=32 / chroma_me=1 / trellis=2 / 8x8dct=1 / cqm=0 / deadzone=21,11 / fast_pskip=1 / chroma_qp_offset=-2 / threads=12 / sliced_threads=0 / nr=0 / decimate=0 / interlaced=0 / constrained_intra=0 / bframes=16 / b_pyramid=2 / b_adapt=2 / b_bias=-1 / direct=3 / weightb=1 / weightp=2 / keyint=250 / keyint_min=25 / scenecut=40 / intra_refresh=0 / rc_lookahead=50 / rc=2pass / mbtree=1 / bitrate=5320 / ratetol=1.0 / qcomp=0.60 / qpmin=10 / qpmax=51 / qpstep=4 / cplxblur=20.0 / qblur=0.5 / vbv_maxrate=25000 / vbv_bufsize=25000 / ip_ratio=1.40 / aq=1:1.00 / nal_hrd=none
Audio #2
ID : 2
Format : AC-3
Format/Info : Audio Coding 3
Format_Settings_ModeExtension : CM (complete main)
Codec ID : A_AC3
Duration : 1h 31mn
Bit rate mode : Constant
Bit rate : 448 Kbps
Channel(s) : 6 channels
Channel positions : Front: L C R, Side: L R, LFE
Sampling rate : 48.0 KHz
Stream size : 294 MiB (6%)
Title : AC3 5.1ch 448kbps [Двухголосый R5]
Language : Russian
Audio #3
ID : 3
Format : DTS
Format/Info : Digital Theater Systems
Codec ID : A_DTS
Duration : 1h 31mn
Bit rate mode : Constant
Bit rate : 1 510 Kbps
Channel(s) : 6 channels
Channel positions : Front: L C R, Side: L R, LFE
Sampling rate : 48.0 KHz
Resolution : 24 bits
Stream size : 989 MiB (21%)
Title : DTS 5.1ch 1536kbps
Text #4
ID : 4
Format : UTF-8
Codec ID : S_TEXT/UTF8
Codec ID/Info : UTF-8 Plain Text
Language : Russian
Text #5
ID : 5
Format : UTF-8
Codec ID : S_TEXT/UTF8
Codec ID/Info : UTF-8 Plain Text

piratbit.org



Скачать Вышибалы через торрент http://i4.imageban.ru/out/2010/10/04/c54806c617579c3cf3d08e35ca13020f.jpg Скачать фильм Вышибалы через торрент бесплантно в хорошем качестве Описание: Для сына босса мафии ошибки и чувства - непростительная роскошь. Мэтти пришлось дорого заплатить, чтобы понять это. После долгих ... 10 10 1
Info! Золотая раздача, скачанное не засчитывается.
Торрент: Зарегистрирован [2010-10-04 14:52] · скачан: 378 раз
Статус: √ проверено
Размер: 4.65 GB
Как cкачать? Как скачать Вышибалы через торрент | qTorrent

% Раздел Тема Автор DL S | L
Фильмы 2001-2005 [ 689 MB ] Вышибалы / Knockaround Guys [2001 BDRip] Trust Скачать
1 | 0

28-11-2019 20:33  

Отключить всю рекламу на сайте

04-10-2010 15:00 Вышибалы Скачать торрент  

Суперский фильм!! :good2:piratbit.org



04-10-2010 15:18 Вышибалы Скачать торрент  

Да ФИЛЬМ НИФТЯК хоть и старенькийpiratbit.org



04-10-2010 15:59 Вышибалы Скачать торрент  

смотреть ВСЕМ!!!!!!!!!!!!!!!!!!!!!!!!piratbit.org



01-03-2012 14:48 Вышибалы Скачать торрент  

посмотримpiratbit.org



    Дорогой пользователь! Огромная просьба, поблагодарите релизера, оцените раздачу и оставьте свои комментарий, если Вы скачали Вышибалы через торрент бесплатно! Внесите свою лепту в развитие PiratBit!
    Комментировать посты могут только пользователи прошедшие не сложную регистрацию
    Показать сообщения:    

    Вышибалы через торрент
    Скачать бесплатно Вышибалы
    Вышибалы скачать торрент
    Вышибалы смотреть онлайн
    Cкачать фильм Вышибалы бесплатно
    Вышибалы скачать торрент в хорошем качестве
    Вышибалы смотреть онлайн бесплатно в хорошем качестве


    Вы не можете начинать темы
    Вы не можете отвечать на сообщения
    Вы не можете редактировать свои сообщения
    Вы не можете удалять свои сообщения
    Вы не можете голосовать в опросах
    Вы не можете прикреплять файлы к сообщениям
    Вы можете скачивать файлы