Доктор Стрэндж

Лицензия

Добыча

Дубляж

Уэнсдэй

1 сезон

Тор

Дубляж

В эфире

Дубляж

Там, где раки поют

MVO

Властелин колец

1 сезон

Deluxe

pack

Рекомендуем

30

Пиратка

ВАЖНО

ВАЖНО

Ghostwire

Пиратка

jed

RePack

nioh2

RePack

RDR2

RePack

NEED FOR SPEED™ PAYBACK

RePack

скачать торрент

Кинопоиск HD

Острые козырьки 6 сезон

6 сезон

FAR CRY 6

RePack

скачать торрент

Лицензия

скачать торрент

MVO

1

1 сезон

скачать торрент

1 сезон

скачать торрент

Лицензия

  

Лицом к лицу / Faccia a faccia (Сержио Соллима) [1967, вестерн, BDRip 1080p ] VO

Лицом к лицу через торрент piratbit.org

Размер: 8.2 GB | Добавлен: 5 лет 7 мес. назад | Торрент скачан:9 раз
Смотреть онлайн | Скачать   

30-04-2017 06:16 Лицом к лицу Скачать торрент  

Название: Лицом к лицу
Оригинальное название: Faccia a faccia
Год выпуска: 1967
Страна: Италия, Испания
Жанр: вестерн
Продолжительность: 01:33:31
Перевод: любительский одноголосый

Режиссёр: Сержио Соллима

В ролях: Томас Милиан, Джан Мария Волонте, Вильям Бергер, Иоланда Модио, Хосе Торрес, Джанни Риццо, Кароль Андре, Анхель дель Посо, Альдо Самбрелл, Нелло Паццафини, Федерико Бойдо, Линда Верас, Антонио Касас, Франк Бранья, Джованни Иван Скратулья, Лидия Альфонси, Лоренцо Робледо

Описание: Профессор Брэд Флетчер случайным образом оказывается в компании отъявленного бандита Соломона «Боригарда» Беннета. Поначалу преступная натура невольного компаньона отталкивает Флетчера, воспитанного в уважении к закону, но истинная сущность профессора со временем раскрывается...



Качество: BDRip 1080p
Формат: MKV
Видео: MPEG-4 AVC, 12.2 Mбит/с, 1920x820, 23,976 кадра/с
Аудио 1: русский, AC3, 192 kbps, 2 ch, 48 kHz [любительский одноголосый, Satkur]
Аудио 2: итальянский, AC3, 192 kbps, 2 ch, 48 kHz [оригинал]
Имеются неименованные главы/чаптеры.
Общее
Уникальный идентификатор : 186097264917974449233584862125600571138 (0x8C01078DCC2D2C24B1D35ED18DA47F02)
Полное имя : D:\Video\Лицом к лицу.1967.BDRip.1080p by msltel.mkv
Формат : Matroska
Версия формата : Version 4 / Version 2
Размер файла : 8,20 Гбайт
Продолжительность : 1 ч. 33 м.
Общий поток : 12,5 Мбит/сек
Название фильма : Rip by msltel
Дата кодирования : UTC 2017-04-30 04:43:46
Программа кодирования : mkvmerge v8.2.0 ('World of Adventure') 64bit
Библиотека кодирования : libebml v1.3.1 + libmatroska v1.4.2

Видео
Идентификатор : 1
Формат : AVC
Формат/Информация : Advanced Video Codec
Профиль формата : High@L4.1
Параметр CABAC формата : Да
Параметр ReFrames формата : 4 кадра
Идентификатор кодека : V_MPEG4/ISO/AVC
Продолжительность : 1 ч. 33 м.
Битрейт : 12,2 Мбит/сек
Ширина : 1920 пикселей
Высота : 820 пикселей
Соотношение сторон : 2,35:1
Режим частоты кадров : Постоянный
Частота кадров : 23,976 (24000/1001) кадра/сек
Цветовое пространство : YUV
Субдискретизация насыщенности : 4:2:0
Битовая глубина : 8 бит
Тип развёртки : Прогрессивная
Бит/(Пиксели*Кадры) : 0.322
Размер потока : 7,94 Гбайт (97%)
Библиотека кодирования : x264 core 146 r2538 121396c
Настройки программы : cabac=1 / ref=4 / deblock=1:-3:-2 / analyse=0x3:0x113 / me=umh / subme=11 / psy=1 / psy_rd=1.00:0.15 / mixed_ref=1 / me_range=32 / chroma_me=1 / trellis=2 / 8x8dct=1 / cqm=0 / deadzone=21,11 / fast_pskip=0 / chroma_qp_offset=-3 / threads=6 / lookahead_threads=1 / sliced_threads=0 / nr=0 / decimate=1 / interlaced=0 / bluray_compat=0 / constrained_intra=0 / bframes=11 / b_pyramid=2 / b_adapt=2 / b_bias=0 / direct=1 / weightb=1 / open_gop=0 / weightp=2 / keyint=230 / keyint_min=23 / scenecut=40 / intra_refresh=0 / rc_lookahead=40 / rc=crf / mbtree=0 / crf=19.3 / qcomp=0.60 / qpmin=0 / qpmax=69 / qpstep=4 / vbv_maxrate=62500 / vbv_bufsize=78125 / crf_max=0.0 / nal_hrd=none / filler=0 / ip_ratio=1.40 / pb_ratio=1.30 / aq=1:1.00
Язык : Italian
Default : Да
Forced : Нет

Аудио #1
Идентификатор : 2
Формат : AC-3
Формат/Информация : Audio Coding 3
Параметр Endianness формата : Big
Идентификатор кодека : A_AC3
Продолжительность : 1 ч. 33 м.
Вид битрейта : Постоянный
Битрейт : 192 Кбит/сек
Каналы : 2 канала
Расположение каналов : Front: L R
Частота : 48,0 КГц
Частота кадров : 31,250 кадров/сек (1536 spf)
Битовая глубина : 16 бит
Метод сжатия : С потерями
Размер потока : 128 Мбайт (2%)
Заголовок : любительский одноголосый, Satkur
Язык : Russian
ServiceKind/String : Complete Main
Default : Да
Forced : Нет

Аудио #2
Идентификатор : 3
Формат : AC-3
Формат/Информация : Audio Coding 3
Параметр Endianness формата : Big
Идентификатор кодека : A_AC3
Продолжительность : 1 ч. 33 м.
Вид битрейта : Постоянный
Битрейт : 192 Кбит/сек
Каналы : 2 канала
Расположение каналов : Front: L R
Частота : 48,0 КГц
Частота кадров : 31,250 кадров/сек (1536 spf)
Битовая глубина : 16 бит
Метод сжатия : С потерями
Размер потока : 128 Мбайт (2%)
Заголовок : original
Язык : Italian
ServiceKind/String : Complete Main
Default : Нет
Forced : Нет

Меню
00:00:00.000 : :Chapter 01
00:07:11.221 : :Chapter 02
00:21:25.075 : :Chapter 03
00:35:15.112 : :Chapter 04
00:45:07.246 : :Chapter 05
00:56:19.501 : :Chapter 06
01:07:42.766 : :Chapter 07
01:17:31.395 : :Chapter 08



Скачать Лицом к лицу через торрент http://hostpic.gq/img/2017-04/30/51ibabzm4n3vfryuh0zkrndg1.jpg Скачать, смотреть онлайн Лицом к лицу бесплантно в хорошем качестве Описание: Профессор Брэд Флетчер случайным образом оказывается в компании отъявленного бандита Соломона «Боригарда» Беннета. Поначалу ... 10 10 2
Info! Золотая раздача, скачанное не засчитывается.
Торрент: Зарегистрирован [2017-04-30 06:16] · скачан: 9 раз
Статус: √ проверено
Размер: 8.2 GB
Как cкачать? Как скачать Лицом к лицу через торрент | UTorrent

% Раздел Тема Автор DL S | L
Фильмы [HD 720p, 1080p] (Звук Cam, VO, DVO) [ 3.41 GB ] Лицом к лицу / Faccia a faccia | | 720p msltel Скачать
1 | 0

28-11-2019 20:33  


Отключить вcю реклaмy на сайте, в т.ч. и в плеере онлайн просмотра!

    Дорогой пользователь! Огромная просьба, поблагодарите релизера, оцените раздачу и оставьте свои комментарий, если Вы скачали Лицом к лицу через торрент бесплатно!!
    Комментировать посты могут только пользователи прошедшие не сложную регистрацию
    Показать сообщения:    


    Лицом к лицу через торрент
    Скачать бесплатно Лицом к лицу
    Лицом к лицу скачать торрент
    Лицом к лицу смотреть онлайн
    Cкачать фильм Лицом к лицу бесплатно
    Лицом к лицу скачать торрент в хорошем качестве
    Лицом к лицу смотреть онлайн бесплатно в хорошем качестве
    Вы не можете начинать темы
    Вы не можете отвечать на сообщения
    Вы не можете редактировать свои сообщения
    Вы не можете удалять свои сообщения
    Вы не можете голосовать в опросах
    Вы не можете прикреплять файлы к сообщениям
    Вы можете скачивать файлы
    Лицом к лицу / Faccia a faccia [1967, вестерн, BDRip 1080p ] VO смотреть онлайн, скачать торрент picoco.icu