1 сезон

3 сезон

iTunes

1

iTunes

DUB Netflix

iTunes

13

1 сезон

RePack

30

Deluxe

pack

Легкие деньги

ВАЖНО

ИГРА 18+

pack

RePack

MK11

RePack

jed

RePack

fifa19

RePack

RDR2

RePack

NEED FOR SPEED™ PAYBACK

4 сезон

9 сезон

Бесстыжие 9 сезон

Все сериалы

все сериалы на PB.wtf

RePack

FAR CRY 5

Anonymous, добрый день, мы не успеваем до 1 числа собрать деньги на оплату серверов, помогите нам пожалуйста в это трудное время. В качестве благодарности мы отключим Вам всю рекламу на сайте (укажите свой ник в строку Ваше имя)!

×
  
Magnet ссылка

Влюбленные одиночки / SEX DOLL / Sex Doll (Сильви Веред) [2016 г., триллер, WEB-DLRip, Профессиональный многоголосый закадровый "iTunes"] piratbit.org

Влюбленные одиночки через торрент piratbit.org

Размер: 2.06 GB | Добавлен: 4 года 1 мес. назад | Торрент скачан:563 раза
Скачать  

03-05-2017 18:10 Влюбленные одиночки Скачать торрент  

SEX DOLL / Sex Doll / Влюбленные одиночки
Год выпуска: 2016
Страна: Великобритания, Франция / Les Films du Veyrier, Bureau, The, Lipsync
Жанр: триллер
Продолжительность: 01:43:27
Перевод: Профессиональный многоголосый закадровый (iTunes)

Режиссер: Сильви Веред

rating

В ролях: Афсиа Эрзи, Эш Стаймест, Кароль Роше, Поль Ами, Ira Max, Lindsay Karamoh, Myriam Djeljeli, Джереми Беннетт, Саймон Киллик, Уэйн Сванн

Описание: Место действия современной сказки о любви - темная сторона Лондона, своеобразный мир высококлассных девушек легкого поведения. Вирджиния - молодая, невероятно красивая и независимая француженка. Трудится она много и самоотверженно: проводит дни и ночи с состоятельными мужчинами за большие деньги.

Вирджиния сумела заслужить уважение в своей совершенно аморальной среде. Карьера шла в гору, пока она не встретила его. Руперт - юный и дерзкий. Он по-настоящему влюбляется, закрыв глаза на сомнительную репутацию новой подруги. Его цель - спасти Вирджинию от унижения, опасности и презрения, ставших для нее нормой.

Качество: WEB-DLRip
Формат: AVI
Видео кодек: XviD
Аудио кодек: AC3
Видео: 720x304 (2.37:1), 24.000 fps, XviD build 50 ~2462 kbps avg, 0.47 bit/pixel
Аудио: 48 kHz, AC3 Dolby Digital, 3/2 (L,C,R,l,r) + LFE ch, ~384 kbps

Общее
Полное имя : F:\ФИЛЬМЫ\SEX DOLL.2016.WEB-DLRip.avi
Формат : AVI
Формат/Информация : Audio Video Interleave
Профиль формата : OpenDML
Размер файла : 2,06 Гбайт
Продолжительность : 1 ч. 43 м.
Общий поток : 2854 Кбит/сек
Программа кодирования : VirtualDubMod 1.5.10.3 | www.virtualdub-fr.org || (build 2550/release)
Библиотека кодирования : VirtualDubMod build 2550/release

Видео
Идентификатор : 0
Формат : MPEG-4 Visual
Профиль формата : Advanced Simple@L5
Параметр BVOP формата : 1
Параметр QPel формата : Нет
Параметр GMC формата : Без точки перехода
Параметр матрицы формата : Default (MPEG)
Идентификатор кодека : XVID
Идентификатор кодека/Подсказка : XviD
Продолжительность : 1 ч. 43 м.
Битрейт : 2458 Кбит/сек
Ширина : 720 пикселей
Высота : 304 пикселя
Соотношение сторон : 2,35:1
Частота кадров : 24,000 кадра/сек
Цветовое пространство : YUV
Субдискретизация насыщенности : 4:2:0
Битовая глубина : 8 бит
Тип развёртки : Прогрессивная
Метод сжатия : С потерями
Бит/(Пиксели*Кадры) : 0.468
Размер потока : 1,78 Гбайт (86%)
Библиотека кодирования : XviD 1.2.1 (UTC 2008-12-04)

Аудио
Идентификатор : 1
Формат : AC-3
Формат/Информация : Audio Coding 3
Параметр Endianness формата : Big
Идентификатор кодека : 2000
Продолжительность : 1 ч. 43 м.
Вид битрейта : Постоянный
Битрейт : 384 Кбит/сек
Каналы : 6 каналов
Расположение каналов : Front: L C R, Side: L R, LFE
Частота : 48,0 КГц
Частота кадров : 31,250 кадров/сек (1536 spf)
Битовая глубина : 16 бит
Метод сжатия : С потерями
Размер потока : 284 Мбайт (13%)
Выравнивание : Разделение по промежуткам
Продолжительность промежутка : 42 мс. (1,00 видеокадр)
Время предзагрузки промежутка : 500 мс.
ServiceKind/String : Complete Main

piratbit.org



Скачать Влюбленные одиночки через торрент https://pic1.kartinco.top/images/11/hyjic.jpg Скачать фильм Влюбленные одиночки через торрент бесплантно в хорошем качестве Описание: Место действия современной сказки о любви - темная сторона Лондона, своеобразный мир высококлассных девушек легкого поведения. ... 10 10 13
Торрент: Зарегистрирован [2017-05-03 18:10] · скачан: 563 раз
Статус: √ проверено
Размер: 2.06 GB
Как cкачать? Как скачать Влюбленные одиночки через торрент | UTorrent

% Раздел Тема Автор DL S | L
Фильмы 2016 [DVDrip, WEB-DLRip, HDrip] (DUB, MVO) [ 2.39 GB ] Влюбленные одиночки / SEX DOLL / Sex Doll [2016 BDRip-AVC] bober100 Скачать
1 | 0
Фильмы [HD 720p, 1080p] (Хороший звук DUB, MVO) [ 9.42 GB ] Влюбленные одиночки / SEX DOLL / Sex Doll [2016 BDRip 1080p] MVO bober100 Скачать
1 | 0
Фильмы 2016 [DVDrip, WEB-DLRip, HDrip] (DUB, MVO) [ 699 MB ] Влюбленные одиночки / Sex Doll [2016 WEB-DLRip ] Sherif Скачать
1 | 0

28-11-2019 20:33  

Отключить всю рекламу на сайте

24-10-2018 17:57 Влюбленные одиночки Скачать торрент  

Трудится она много и самоотверженно: проводит дни и ночи с состоятельными мужчинами за большие деньги.
Ну прямо героиня труда!piratbit.org



    Дорогой пользователь! Огромная просьба, поблагодарите релизера, оцените раздачу и оставьте свои комментарий, если Вы скачали Влюбленные одиночки через торрент бесплатно! Внесите свою лепту в развитие PiratBit!
    Комментировать посты могут только пользователи прошедшие не сложную регистрацию
    Показать сообщения:    

    Влюбленные одиночки через торрент
    Скачать бесплатно Влюбленные одиночки
    Влюбленные одиночки скачать торрент
    Влюбленные одиночки смотреть онлайн
    Cкачать фильм Влюбленные одиночки бесплатно
    Влюбленные одиночки скачать торрент в хорошем качестве
    Влюбленные одиночки смотреть онлайн бесплатно в хорошем качестве


    Вы не можете начинать темы
    Вы не можете отвечать на сообщения
    Вы не можете редактировать свои сообщения
    Вы не можете удалять свои сообщения
    Вы не можете голосовать в опросах
    Вы не можете прикреплять файлы к сообщениям
    Вы можете скачивать файлы