Доктор Стрэндж

Лицензия

Добыча

Дубляж

Дом дракона

1 сезон

Тор

Дубляж

В эфире

Дубляж

Там, где раки поют

MVO

Властелин колец

1 сезон

Ultimate

pack

Рекомендуем

30

Пиратка

ВАЖНО

ВАЖНО

Ghostwire

Пиратка

jed

RePack

nioh2

RePack

RDR2

RePack

NEED FOR SPEED™ PAYBACK

RePack

скачать торрент

Кинопоиск HD

Острые козырьки 6 сезон

6 сезон

FAR CRY 6

RePack

скачать торрент

Лицензия

скачать торрент

MVO

1

1 сезон

скачать торрент

1 сезон

скачать торрент

Лицензия

  

Убежище / Freistatt (Марк Браммунд) [2015, драма, BDRip 1080p] Любительский двухголосый [ViruseProject]

Убежище через торрент piratbit.org

Размер: 6.28 GB | Добавлен: 5 лет 6 мес. назад | Торрент скачан:75 раз
Смотреть онлайн | Скачать   

04-05-2017 18:16 Убежище Скачать торрент  

Убежище / Freistatt

Год выпуска: 2015
Страна: Германия
Жанр: драма

Продолжительность: 01:44:03
Перевод: Любительский двухголосый [ViruseProject]
Примечание: Присутствует текстовая реклама в начале и в конце фильма
Субтитры: русские (ViruseProject)
Режиссер: Марк Браммунд
В ролях:

Луис Хофманн (Wolfgang), Александер Хельд (Hausvater Brockmann), Штефан Гросман (Bruder Wilde), Макс Римельт (Bruder Krapp), Катарина Лоренц (Ingrid), Уве Бом (Heinz), Лэнгстон Уйбель (Anton), Энно Требс (Bernd), Оле Йоенссон (Hans), Анна Баллард (Angelika), Ганс-Петер Корфф (Pastor Abeln), Хендрик фон Бюльцингслёвен (Bruder Hanebuth)
Описание:
Лето 1968: студенческие волнения, протесты против войны во Вьетнаме, мини-юбки, джинсы-клёш, сексуальная революция. Пока Германия вступает в новую эру свободы, 14-летнего Вольфганга - с подачи ревнивого отчима - отправляют в исправительное учреждение под названием «Фрайштатт». Как оказалось, в этом заведении для трудных подростков царит жестокость и насилие - как физическое, так и психологическое. Побег кажется невозможным.
Рейтинг:

Качество: BDRip 1080p
Формат: MKV
Видео: AVC, 1920x808 (2.40:1), 7638 kbps, 25 fps, 0,197 bpp
Аудио №1: русский / AC3 / 2.0 / 48 kHz / 384 kbps / |DVO, ViruseProject|
Аудио №2: немецкий / AC3 / 5.1 / 48 kHz / 448 kbps /
Релиз от: Семпл
General
Unique ID : 217980432360549308802445454273727672727 (0xA3FD8113141CFE5BBB1DA49409FFB197)
Complete name : E:\Freistatt.2015.1080p.ViruseProject.mkv
Format : Matroska
Format version : Version 4 / Version 2
File size : 6.28 GiB
Duration : 1 h 44 min
Overall bit rate : 8 643 kb/s
Encoded date : UTC 2017-05-04 09:02:31
Writing application : mkvmerge v8.3.0 ('Over the Horizon') 64bit
Writing library : libebml v1.3.1 + libmatroska v1.4.2

Video
ID : 1
Format : AVC
Format/Info : Advanced Video Codec
Format profile : High@L4.1
Format settings, CABAC : Yes
Format settings, ReFrames : 5 frames
Codec ID : V_MPEG4/ISO/AVC
Duration : 1 h 44 min
Bit rate : 7 639 kb/s
Width : 1 920 pixels
Height : 808 pixels
Display aspect ratio : 2.40:1
Frame rate mode : Constant
Frame rate : 25.000 FPS
Color space : YUV
Chroma subsampling : 4:2:0
Bit depth : 8 bits
Scan type : Progressive
Bits/(Pixel*Frame) : 0.197
Stream size : 5.55 GiB (88%)
Writing library : x264 core 148 r2638 7599210
Encoding settings : cabac=1 / ref=5 / deblock=1:-3:-3 / analyse=0x3:0x133 / me=umh / subme=8 / psy=1 / psy_rd=1.00:0.15 / mixed_ref=1 / me_range=16 / chroma_me=1 / trellis=1 / 8x8dct=1 / cqm=0 / deadzone=21,11 / fast_pskip=0 / chroma_qp_offset=-3 / threads=12 / lookahead_threads=2 / sliced_threads=0 / nr=0 / decimate=1 / interlaced=0 / bluray_compat=0 / constrained_intra=0 / bframes=3 / b_pyramid=2 / b_adapt=2 / b_bias=0 / direct=3 / weightb=1 / open_gop=0 / weightp=2 / keyint=250 / keyint_min=25 / scenecut=40 / intra_refresh=0 / rc_lookahead=50 / rc=crf / mbtree=1 / crf=20.0 / qcomp=0.60 / qpmin=0 / qpmax=69 / qpstep=4 / ip_ratio=1.40 / aq=1:1.00
Language : German
Default : Yes
Forced : No

Audio #1
ID : 2
Format : AC-3
Format/Info : Audio Coding 3
Mode extension : CM (complete main)
Format settings, Endianness : Big
Codec ID : A_AC3
Duration : 1 h 44 min
Bit rate mode : Constant
Bit rate : 384 kb/s
Channel(s) : 2 channels
Channel positions : Front: L R
Sampling rate : 48.0 kHz
Frame rate : 31.250 FPS (1536 spf)
Compression mode : Lossy
Stream size : 286 MiB (4%)
Title : ViruseProject
Language : Russian
Default : Yes
Forced : No

Audio #2
ID : 3
Format : AC-3
Format/Info : Audio Coding 3
Mode extension : CM (complete main)
Format settings, Endianness : Big
Codec ID : A_AC3
Duration : 1 h 44 min
Bit rate mode : Constant
Bit rate : 448 kb/s
Channel(s) : 6 channels
Channel positions : Front: L C R, Side: L R, LFE
Sampling rate : 48.0 kHz
Frame rate : 31.250 FPS (1536 spf)
Compression mode : Lossy
Stream size : 333 MiB (5%)
Title : org
Language : German
Default : No
Forced : No

Text
ID : 4
Format : UTF-8
Codec ID : S_TEXT/UTF8
Codec ID/Info : UTF-8 Plain Text
Title : ViruseProject
Language : Russian
Default : No
Forced : No



Скачать Убежище через торрент http://i6-imageban-ru.translate.goog/out/2017/05/04/a0e69062493d365664a0e2267f886e6c.jpg Скачать, смотреть онлайн Убежище бесплантно в хорошем качестве Описание: Лето 1968: студенческие волнения, протесты против войны во Вьетнаме, мини-юбки, джинсы-клёш, сексуальная революция. Пока Германия ... 10 10 3
Торрент: Зарегистрирован [2017-05-04 18:16] · скачан: 75 раз
Статус: T временная
Размер: 6.28 GB
Как cкачать? Как скачать Убежище через торрент | UTorrent

28-11-2019 20:33  


Отключить вcю реклaмy на сайте, в т.ч. и в плеере онлайн просмотра!

    Дорогой пользователь! Огромная просьба, поблагодарите релизера, оцените раздачу и оставьте свои комментарий, если Вы скачали Убежище через торрент бесплатно!!
    Комментировать посты могут только пользователи прошедшие не сложную регистрацию
    Показать сообщения:    


    Убежище через торрент
    Скачать бесплатно Убежище
    Убежище скачать торрент
    Убежище смотреть онлайн
    Cкачать фильм Убежище бесплатно
    Убежище скачать торрент в хорошем качестве
    Убежище смотреть онлайн бесплатно в хорошем качестве
    Вы не можете начинать темы
    Вы не можете отвечать на сообщения
    Вы не можете редактировать свои сообщения
    Вы не можете удалять свои сообщения
    Вы не можете голосовать в опросах
    Вы не можете прикреплять файлы к сообщениям
    Вы можете скачивать файлы
    Убежище / Freistatt [2015, драма, BDRip 1080p] Любительский двухголосый [ViruseProject] смотреть онлайн, скачать торрент picoco.icu