1 сезон

3 сезон

iTunes

1

iTunes

DUB Netflix

iTunes

13

1 сезон

RePack

30

Deluxe

pack

Легкие деньги

ВАЖНО

ИГРА 18+

pack

RePack

MK11

RePack

jed

RePack

fifa19

RePack

RDR2

RePack

NEED FOR SPEED™ PAYBACK

4 сезон

9 сезон

Бесстыжие 9 сезон

Все сериалы

все сериалы на PB.wtf

RePack

FAR CRY 5

Anonymous, добрый день, мы не успеваем до 1 числа собрать деньги на оплату серверов, помогите нам пожалуйста в это трудное время. В качестве благодарности мы отключим Вам всю рекламу на сайте (укажите свой ник в строку Ваше имя)!

×
  
Magnet ссылка

Без тормозов / À fond (Николас Бенаму) [2016, комедия, BDRip-AVC] DUB [iTunes] piratbit.org

Без тормозов через торрент piratbit.org

Размер: 1.86 GB | Добавлен: 4 года 1 мес. назад | Торрент скачан:1277 раз
Скачать  

05-05-2017 04:31 Без тормозов Скачать торрент  

Без тормозов / À fondГод выпуска: 2016
Страна: Франция, Македония
Жанр: комедия
Продолжительность: 01:31:14
Перевод: Дубляж - [iTunes]
Субтитры: отсутствуют

Режиссер: Николас Бенаму

rating

В ролях:

Хосе Гарсия, Андре Дюссолье, Каролин Виньо, Жозефин Каллиз, Стилан Лекай, Шарлотта Габрис, Венсан Дезанья, Флоренс Форести, Жером Коммандёр, Владимир Хубар

Описание:

Взяв напрокат самый навороченный семейный автомобиль, глава семейства отправляется в долгожданный отпуск со своей женой, детьми и отцом. Но когда новомодный круиз-контроль вдруг полностью отключает тормоза, каникулы перестают быть томными. Пристегните ремни. Вас ждет очень веселая поездочка!

Качество: BDRip-AVC
Формат: MKV
Видео кодек: H.264
Аудио кодек: AC3

Видео: 1024x426 (2.40:1), 23.976 fps, AVC MPEG-4 (x264), High@L4.1, ~2535 kbps avg, 0.242 bit/pixel
Аудио#1: 48 kHz, AC3 Dolby Digital, 3/2 (L,C,R,l,r) + LFE ch, ~384 kbps avg
скриншот   скриншот   скриншот   скриншот   скриншот  

Общее
Уникальный идентификатор : 252170081680533750261743706535313807311 (0xBDB630EE7772EE12A683280DE53817CF)
Полное имя : D:\Bez.Tormozov.2016.BDRip(AVC).OlLanDGroup.mkv
Формат : Matroska
Версия формата : Version 2
Размер файла : 1,86 Гбайт
Продолжительность : 1 ч. 31 м.
Общий поток : 2918 Кбит/сек
Название фильма : Bez.Tormozov.2016 #TorpedoUK#
Дата кодирования : UTC 2017-05-04 17:22:05
Программа кодирования : mkvmerge v7.8.0 ('River Man') 32bit built on Apr 3 2015 12:11:22
Библиотека кодирования : libebml v1.3.1 + libmatroska v1.4.2

Видео
Идентификатор : 1
Формат : AVC
Формат/Информация : Advanced Video Codec
Профиль формата : High@L4.1
Параметр CABAC формата : Да
Параметр ReFrames формата : 10 кадров
Идентификатор кодека : V_MPEG4/ISO/AVC
Продолжительность : 1 ч. 31 м.
Битрейт : 2535 Кбит/сек
Ширина : 1024 пикселя
Высота : 426 пикселей
Соотношение сторон : 2,40:1
Режим частоты кадров : Постоянный
Частота кадров : 23,976 (24000/1001) кадра/сек
Цветовое пространство : YUV
Субдискретизация насыщенности : 4:2:0
Битовая глубина : 8 бит
Тип развёртки : Прогрессивная
Бит/(Пиксели*Кадры) : 0.242
Размер потока : 1,58 Гбайт (85%)
Библиотека кодирования : x264 core 146 r2538 121396c
Настройки программы : cabac=1 / ref=10 / deblock=1:-3:-3 / analyse=0x3:0x133 / me=umh / subme=11 / psy=1 / psy_rd=1.00:0.07 / mixed_ref=1 / me_range=48 / chroma_me=1 / trellis=2 / 8x8dct=1 / cqm=0 / deadzone=21,11 / fast_pskip=0 / chroma_qp_offset=-3 / threads=6 / lookahead_threads=1 / sliced_threads=0 / nr=0 / decimate=0 / interlaced=0 / bluray_compat=0 / constrained_intra=0 / bframes=10 / b_pyramid=2 / b_adapt=2 / b_bias=0 / direct=3 / weightb=1 / open_gop=0 / weightp=2 / keyint=240 / keyint_min=23 / scenecut=40 / intra_refresh=0 / rc_lookahead=40 / rc=2pass / mbtree=0 / bitrate=2535 / ratetol=1.0 / qcomp=0.60 / qpmin=0 / qpmax=69 / qpstep=4 / cplxblur=20.0 / qblur=0.5 / vbv_maxrate=50000 / vbv_bufsize=62500 / nal_hrd=none / filler=0 / ip_ratio=1.40 / pb_ratio=1.30 / aq=1:1.00
Язык : English
Default : Да
Forced : Нет

Аудио
Идентификатор : 2
Формат : AC-3
Формат/Информация : Audio Coding 3
Расширение режима : CM (complete main)
Параметр Endianness формата : Big
Идентификатор кодека : A_AC3
Продолжительность : 1 ч. 31 м.
Вид битрейта : Постоянный
Битрейт : 384 Кбит/сек
Каналы : 6 каналов
Расположение каналов : Front: L C R, Side: L R, LFE
Частота : 48,0 КГц
Частота кадров : 31,250 кадров/сек (1536 spf)
Битовая глубина : 16 бит
Метод сжатия : С потерями
Размер потока : 251 Мбайт (13%)
Заголовок : iTunes
Язык : Russian
Default : Да
Forced : Нет

Меню
00:00:00.000 : en:Chapter 1
00:10:33.341 : en:Chapter 2
00:18:38.157 : en:Chapter 3
00:26:01.558 : en:Chapter 4
00:33:35.221 : en:Chapter 5
00:39:50.679 : en:Chapter 6
00:49:01.438 : en:Chapter 7
00:56:54.119 : en:Chapter 8
01:04:18.396 : en:Chapter 9
01:11:32.203 : en:Chapter 10
01:19:00.068 : en:Chapter 11
01:25:49.394 : en:Chapter 12

piratbit.org



Скачать Без тормозов через торрент http://s009.radikal.ru/i307/1705/e5/567bc105b224.jpg Скачать фильм Без тормозов через торрент бесплантно в хорошем качестве Описание: Взяв напрокат самый навороченный семейный автомобиль, глава семейства отправляется в долгожданный отпуск со своей женой, детьми и ... 9.2 10 22
Info! Золотая раздача, скачанное не засчитывается.
Торрент: Зарегистрирован [2017-05-05 04:31] · скачан: 1 277 раз
Статус: √ проверено
Размер: 1.86 GB
Как cкачать? Как скачать Без тормозов через торрент | UTorrent

% Раздел Тема Автор DL S | L
Фильмы [HD 720p, 1080p] (Хороший звук DUB, MVO) [ 10.06 GB ] Без тормозов / À fond [2016 BDRip 1080p] bober100 Скачать
1 | 0
Фильмы [HD 720p, 1080p] (Хороший звук DUB, MVO) [ 5.03 GB ] Без тормозов / À fond [2016 BDRip 720p] bober100 Скачать
1 | 0
Фильмы 2016 [DVDrip, WEB-DLRip, HDrip] (DUB, MVO) [ 1.42 GB ] Без тормозов / À fond [2016 BDRip] Twi7ter Скачать
3 | 0
Фильмы (Blu-ray, BD-Remux, HDDVD) [ 26.97 GB ] Без тормозов / À fond [2016 BD Remux ] Бумер Скачать
1 | 0
Фильмы 2016 [DVDrip, WEB-DLRip, HDrip] (DUB, MVO) [ 1.37 GB ] Без тормозов / À fond [2016 HDRip] killermax2013 Скачать
1 | 0

28-11-2019 20:33  

Отключить всю рекламу на сайте

05-05-2017 08:24 Без тормозов Скачать торрент  

неплохо!!!piratbit.org



05-05-2017 20:42 Без тормозов Скачать торрент  

Один раз глянуть можно.piratbit.org



20-05-2017 17:16 Без тормозов Скачать торрент  

Самый дерьмовый фильм, который я смотрел за последнее время! Шутки, как будто дети писали. Даже не улыбнулся ни разу!piratbit.org



23-05-2017 15:50 Без тормозов Скачать торрент  

Monarx писал(а):

Самый дерьмовый фильм, который я смотрел за последнее время! Шутки, как будто дети писали. Даже не улыбнулся ни разу!

Отличный фильм. Давно таких не выходило...piratbit.org



04-06-2017 19:28 Без тормозов Скачать торрент  

Прикольный фильм! Спасибо)piratbit.org



    Дорогой пользователь! Огромная просьба, поблагодарите релизера, оцените раздачу и оставьте свои комментарий, если Вы скачали Без тормозов через торрент бесплатно! Внесите свою лепту в развитие PiratBit!
    Комментировать посты могут только пользователи прошедшие не сложную регистрацию
    Показать сообщения:    

    Без тормозов через торрент
    Скачать бесплатно Без тормозов
    Без тормозов скачать торрент
    Без тормозов смотреть онлайн
    Cкачать фильм Без тормозов бесплатно
    Без тормозов скачать торрент в хорошем качестве
    Без тормозов смотреть онлайн бесплатно в хорошем качестве


    Вы не можете начинать темы
    Вы не можете отвечать на сообщения
    Вы не можете редактировать свои сообщения
    Вы не можете удалять свои сообщения
    Вы не можете голосовать в опросах
    Вы не можете прикреплять файлы к сообщениям
    Вы можете скачивать файлы