1 сезон

3 сезон

iTunes

1

iTunes

DUB Netflix

iTunes

13

1 сезон

RePack

30

Deluxe

pack

Легкие деньги

ВАЖНО

ИГРА 18+

pack

RePack

MK11

RePack

jed

RePack

fifa19

RePack

RDR2

RePack

NEED FOR SPEED™ PAYBACK

4 сезон

9 сезон

Бесстыжие 9 сезон

Все сериалы

все сериалы на PB.wtf

RePack

FAR CRY 5

Anonymous, добрый день, мы не успеваем до 1 числа собрать деньги на оплату серверов, помогите нам пожалуйста в это трудное время. В качестве благодарности мы отключим Вам всю рекламу на сайте (укажите свой ник в строку Ваше имя)!

×
  
Magnet ссылка

Комик / The Comedian (Тейлор Хэкфорд) [2016, комедия, WEB-DLRip] MVO [@MUZOBOZ@] piratbit.org

Комик через торрент piratbit.org

Размер: 1.37 GB | Добавлен: 4 года 1 мес. назад | Торрент скачан:240 раз
Скачать  

05-05-2017 12:48 Комик Скачать торрент  

Комик / The ComedianГод выпуска: 2016
Страна: США
Жанр: комедия
Продолжительность: 02:00:56
Перевод: Любительский (многоголосый) - [@MUZOBOZ@]
Субтитры: отсутствуют

Режиссер: Тейлор Хэкфорд

rating

В ролях:

Роберт Де Ниро, Лесли Манн, Харви Кейтель, Иди Фалько, Дэнни ДеВито, Пэтти ЛюПон, Чарльз Гродин, Клорис Личмен, Люси ДеВито

Описание:

История стареющего стэнд-ап комика...

Качество: WEB-DLRip
Формат: AVI
Видео кодек: XviD
Аудио кодек: AC3

Видео: 720x384 (1.85:1), 23.976 fps, XviD ~1 417 kbps avg, 0.214 bit/pixel
Аудио#1: 48.0 kHz, AC3 Dolby Digital, 2/0 (L,R) ch, ~192 kbps

скриншот   скриншот   скриншот  

Общее
Полное имя : C:\The.Comedian.2017.P.WEB-DLRip.14OOMB_KOSHARA.avi
Формат : AVI
Формат/Информация : Audio Video Interleave
Размер файла : 1,37 Гбайт
Продолжительность : 2 ч. 0 м.
Общий поток : 1618 Кбит/сек
Программа кодирования : VirtualDubMod 1.5.10.2 (build 2540/release)
Библиотека кодирования : VirtualDubMod build 2540/release

Видео
Идентификатор : 0
Формат : MPEG-4 Visual
Профиль формата : Advanced Simple@L5
Параметр BVOP формата : 2
Параметр QPel формата : Нет
Параметр GMC формата : Без точки перехода
Параметр матрицы формата : Default (MPEG)
Идентификатор кодека : XVID
Идентификатор кодека/Подсказка : XviD
Продолжительность : 2 ч. 0 м.
Битрейт : 1417 Кбит/сек
Ширина : 720 пикселей
Высота : 384 пикселя
Соотношение сторон : 1,85:1
Частота кадров : 23,976 (24000/1001) кадра/сек
Цветовое пространство : YUV
Субдискретизация насыщенности : 4:2:0
Битовая глубина : 8 бит
Тип развёртки : Прогрессивная
Метод сжатия : С потерями
Бит/(Пиксели*Кадры) : 0.214
Размер потока : 1,20 Гбайт (88%)
Библиотека кодирования : XviD 1.2.1 (UTC 2008-12-04)

Аудио
Идентификатор : 1
Формат : AC-3
Формат/Информация : Audio Coding 3
Расширение режима : CM (complete main)
Параметр Endianness формата : Big
Идентификатор кодека : 2000
Продолжительность : 2 ч. 0 м.
Вид битрейта : Постоянный
Битрейт : 192 Кбит/сек
Каналы : 2 канала
Расположение каналов : Front: L R
Частота : 48,0 КГц
Частота кадров : 31,250 кадров/сек (1536 spf)
Метод сжатия : С потерями
Размер потока : 166 Мбайт (12%)
Выравнивание : Разделение по промежуткам
Продолжительность промежутка : 42 мс. (1,00 видеокадр)
Время предзагрузки промежутка : 500 мс.

piratbit.org



Скачать Комик через торрент http://s016.radikal.ru/i337/1705/20/399f7bdce332.png Скачать фильм Комик через торрент бесплантно в хорошем качестве Описание: История стареющего стэнд-ап ... 8.1 10 9
Торрент: Зарегистрирован [2017-05-05 12:48] · скачан: 240 раз
Статус: T временная
Размер: 1.37 GB
Как cкачать? Как скачать Комик через торрент | UTorrent

% Раздел Тема Автор DL S | L
T Фильмы (мультфильмы) cо спонсором показа (Новинки AVI/MKV) [ 3.68 GB ] Руководство по выживанию для комиков / The Comedian's Guide to Survival [2016 WEB-DL 720p] MVO ["Синема УС"] bober100 Скачать
1 | 0
T Фильмы (мультфильмы) cо спонсором показа (Новинки AVI/MKV) [ 1.37 GB ] Руководство по выживанию для комиков / The Comedian's Guide to Survival [2016 WEB-DLRip] MVO ["Синема УС"] bober100 Скачать
1 | 0
T Релизы по Парсеру [Игры, Сериалы и Фильмы и другое...] [ 3.79 GB ] Комик / The Comedian [2016 WEB-DL 720p] MVO [@MUZOBOZ@] bober100 Скачать
1 | 0
T Релизы по Парсеру [Игры, Сериалы и Фильмы и другое...] [ 4.51 GB ] Комик / The Comedian [2016 WEB-DL 1080p] MVO [@MUZOBOZ@] bober100 Скачать
1 | 0
Фильмы без перевода [ 22.74 GB ] Комик / The Comedian [2016 BD Remux] [Оригинал-ENG] smaster Скачать
1 | 0

28-11-2019 20:33  

Отключить всю рекламу на сайте

05-05-2017 21:15 Комик Скачать торрент  

Быдло-юмор.(Или это сатира?)piratbit.org



06-05-2017 11:17 Комик Скачать торрент  

Norton63 писал(а):

Быдло-юмор.(Или это сатира?)

Исключительно зависит от перевода.piratbit.org



    Дорогой пользователь! Огромная просьба, поблагодарите релизера, оцените раздачу и оставьте свои комментарий, если Вы скачали Комик через торрент бесплатно! Внесите свою лепту в развитие PiratBit!
    Комментировать посты могут только пользователи прошедшие не сложную регистрацию
    Показать сообщения:    

    Комик через торрент
    Скачать бесплатно Комик
    Комик скачать торрент
    Комик смотреть онлайн
    Cкачать фильм Комик бесплатно
    Комик скачать торрент в хорошем качестве
    Комик смотреть онлайн бесплатно в хорошем качестве


    Вы не можете начинать темы
    Вы не можете отвечать на сообщения
    Вы не можете редактировать свои сообщения
    Вы не можете удалять свои сообщения
    Вы не можете голосовать в опросах
    Вы не можете прикреплять файлы к сообщениям
    Вы можете скачивать файлы