1 сезон

3 сезон

iTunes

1

iTunes

DUB Netflix

iTunes

13

1 сезон

RePack

30

Deluxe

pack

Легкие деньги

ВАЖНО

ИГРА 18+

pack

RePack

MK11

RePack

jed

RePack

fifa19

RePack

RDR2

RePack

NEED FOR SPEED™ PAYBACK

4 сезон

9 сезон

Бесстыжие 9 сезон

Все сериалы

все сериалы на PB.wtf

RePack

FAR CRY 5

Anonymous, добрый день, мы не успеваем до 1 числа собрать деньги на оплату серверов, помогите нам пожалуйста в это трудное время. В качестве благодарности мы отключим Вам всю рекламу на сайте (укажите свой ник в строку Ваше имя)!

×
  
Magnet ссылка

Золото / Gold (Стивен Гейган) [2016, триллер, драма, приключения, BDRip-AVC] Дубляж [iTunes] - ExKinoRay piratbit.org

Золото через торрент piratbit.org

Размер: 2.2 GB | Добавлен: 4 года 1 мес. назад | Торрент скачан:1600 раз
Скачать  

09-05-2017 05:01 Золото Скачать торрент  

Информация о фильме
Название: Золото
Оригинальное название: Gold
Год выхода: 2016
Страна: США
Студия: Black Bear Pictures, Hwy61, Living Films
Жанр: Триллер, драма, приключения
Продолжительность: 02:00:20
Перевод: Дублированный | iTunes
Режиссер: Стивен Гейган
В ролях: Мэттью МакКонахи, Эдгар Рамирес, Брайс Даллас Ховард, Кори Столл, Тоби Кеббелл, Билл Кэмп, Джошуа Харто, Тимоти С. Саймонс, Крэйг Т. Нельсон, Мэйкон Блэр

Описание:
В начале 80-х годов прошлого столетия полулегальный бизнес Кенни Уэллса по скупке и перепродаже золота приносил его владельцу огромные доходы. Однако внезапная смерть отца, а затем разразившийся в Соединенных Штатах финансовый кризис поставил некогда процветающую компанию на грань банкротства. И тогда Уэллс закладывает в ломбарде последний золотой браслет жены и покупает билет на самолет в Индонезию – там, в дебрях непроходимых джунглей, его старый партнер по бизнесу якобы наткнулся на золотое месторождение. Кажется, судьба все же улыбнулась Уэллсу - но он даже не подозревает, что ждет его впереди.


rating

Файл
Качество: BDRip (AVC)
Видео: MPEG-4 AVC, 1024x426 (2.40:1), ~ 1783 kbps avg, 23.976 FPS, 0.170 bit/pixel
Аудио #1: AC-3, 48.0 KHz, 6 ch, 384 Kbps, CBR (Russian)
Аудио #2: AC-3, 48.0 KHz, 6 ch, 448 Kbps, CBR (English)
Субтитры: Английские
General
Unique ID : 251751274315963510486968946898193992988 (0xBD6588225BE3FFF681D5C5E7DEA9CD1C)
Complete name : D:\Gold.2016.BDRip.AVC.ExKinoRay.mkv
Format : Matroska
Format version : Version 2
File size : 2.63 GiB
Duration : 2 h 0 min
Overall bit rate : 3 128 kb/s
Movie name : Gold 2016 from ExKinoRay
Encoded date : UTC 2017-04-24 11:33:22
Writing application : mkvmerge v5.8.0 ('No Sleep / Pillow') built on Sep 2 2012 15:37:04
Writing library : libebml v1.2.3 + libmatroska v1.3.0

Video
ID : 1
Format : AVC
Format/Info : Advanced Video Codec
Format profile : High@L4.1
Format settings, CABAC : Yes
Format settings, ReFrames : 12 frames
Codec ID : V_MPEG4/ISO/AVC
Duration : 2 h 0 min
Bit rate : 1 783 kb/s
Width : 1 024 pixels
Height : 426 pixels
Display aspect ratio : 2.40:1
Frame rate mode : Constant
Frame rate : 23.976 (24000/1001) FPS
Color space : YUV
Chroma subsampling : 4:2:0
Bit depth : 8 bits
Scan type : Progressive
Bits/(Pixel*Frame) : 0.170
Stream size : 1.45 GiB (55%)
Title : Enigma
Writing library : x264 core 144 r2525 40bb568
Encoding settings : cabac=1 / ref=12 / deblock=1:-2:-2 / analyse=0x3:0x113 / me=umh / subme=10 / psy=1 / psy_rd=1.05:0.10 / mixed_ref=1 / me_range=32 / chroma_me=1 / trellis=2 / 8x8dct=1 / cqm=0 / deadzone=21,11 / fast_pskip=1 / chroma_qp_offset=-3 / threads=12 / lookahead_threads=3 / sliced_threads=0 / nr=0 / decimate=0 / interlaced=0 / bluray_compat=0 / constrained_intra=0 / bframes=11 / b_pyramid=2 / b_adapt=2 / b_bias=0 / direct=3 / weightb=1 / open_gop=0 / weightp=2 / keyint=240 / keyint_min=23 / scenecut=40 / intra_refresh=0 / rc_lookahead=40 / rc=2pass / mbtree=0 / bitrate=1783 / ratetol=1.0 / qcomp=0.60 / qpmin=0 / qpmax=51 / qpstep=4 / cplxblur=20.0 / qblur=0.5 / vbv_maxrate=50000 / vbv_bufsize=62500 / nal_hrd=none / filler=0 / ip_ratio=1.40 / pb_ratio=1.30 / aq=1:1.00
Language : English
Default : Yes
Forced : No
Color range : Limited
Color primaries : BT.709
Transfer characteristics : BT.709
Matrix coefficients : BT.709

Audio #1
ID : 2
Format : AC-3
Format/Info : Audio Coding 3
Mode extension : CM (complete main)
Format settings, Endianness : Big
Codec ID : A_AC3
Duration : 2 h 0 min
Bit rate mode : Constant
Bit rate : 448 kb/s
Channel(s) : 6 channels
Channel positions : Front: L C R, Side: L R, LFE
Sampling rate : 48.0 kHz
Frame rate : 31.250 FPS (1536 spf)
Compression mode : Lossy
Stream size : 386 MiB (14%)
Title : MVO
Language : Russian
Default : Yes
Forced : No

Audio #2
ID : 3
Format : AC-3
Format/Info : Audio Coding 3
Mode extension : CM (complete main)
Format settings, Endianness : Big
Codec ID : A_AC3
Duration : 2 h 0 min
Bit rate mode : Constant
Bit rate : 448 kb/s
Channel(s) : 6 channels
Channel positions : Front: L C R, Side: L R, LFE
Sampling rate : 48.0 kHz
Frame rate : 31.250 FPS (1536 spf)
Compression mode : Lossy
Stream size : 386 MiB (14%)
Title : AVO (Chadov)
Language : Russian
Default : No
Forced : No

Audio #3
ID : 4
Format : AC-3
Format/Info : Audio Coding 3
Mode extension : CM (complete main)
Format settings, Endianness : Big
Codec ID : A_AC3
Duration : 2 h 0 min
Bit rate mode : Constant
Bit rate : 448 kb/s
Channel(s) : 6 channels
Channel positions : Front: L C R, Side: L R, LFE
Sampling rate : 48.0 kHz
Frame rate : 31.250 FPS (1536 spf)
Compression mode : Lossy
Stream size : 386 MiB (14%)
Language : English
Default : No
Forced : No

Text
ID : 5
Format : UTF-8
Codec ID : S_TEXT/UTF8
Codec ID/Info : UTF-8 Plain Text
Language : English
Default : No
Forced : No

Menu
00:00:00.000 : en:00:00:00.000
00:05:22.656 : en:00:05:22.656
00:12:13.358 : en:00:12:13.358
00:18:37.700 : en:00:18:37.700
00:25:58.932 : en:00:25:58.932
00:31:31.515 : en:00:31:31.515
00:37:36.129 : en:00:37:36.129
00:44:01.180 : en:00:44:01.180
00:50:37.201 : en:00:50:37.201
00:57:16.016 : en:00:57:16.016
01:04:13.725 : en:01:04:13.725
01:10:21.175 : en:01:10:21.175
01:16:30.419 : en:01:16:30.419
01:23:53.362 : en:01:23:53.362
01:30:24.419 : en:01:30:24.419
01:36:08.429 : en:01:36:08.429
01:39:51.986 : en:01:39:51.986
01:48:49.690 : en:01:48:49.690
01:52:55.102 : en:01:52:55.102
Релиз от:

Автор релиза: piratbit.org



Скачать Золото через торрент http://i91.fastpic.ru/big/2017/0419/1e/e69fc3c5481a5aa976af9e57b0b5301e.jpg Скачать фильм Золото через торрент бесплантно в хорошем качестве Описание: В начале 80-х годов прошлого столетия полулегальный бизнес Кенни Уэллса по скупке и перепродаже золота приносил его владельцу ... 9.9 10 21
Info! Золотая раздача, скачанное не засчитывается.
Торрент: Зарегистрирован [2017-05-09 05:01] · скачан: 1 600 раз
Статус: √ проверено
Размер: 2.2 GB
Как cкачать? Как скачать Золото через торрент | UTorrent

% Раздел Тема Автор DL S | L
Фильмы с авторской озвучкой [ 2.99 GB ] Kingsman: Золотое кольцо / Kingsman: The Golden Circle [2017 BDRip-AVC] AVO [Сербин] Ukr - ExKinoRay Enigma2010 Скачать
1 | 0
Фильмы 2017 [DVDrip, WEB-DLRip, HDrip] (DUB, MVO) [ 2.99 GB ] Kingsman: Золотое кольцо / Kingsman: The Golden Circle [2017 BDRip-AVC] DUB [] - ExKinoRay Enigma2010 Скачать
2 | 0

28-11-2019 20:33  

Отключить всю рекламу на сайте


09-05-2017 06:51 Золото Скачать торрент  

Фильм очень классный, рекомендуюpiratbit.org



09-05-2017 12:40 Золото Скачать торрент  

cfiekmrf писал(а):

Фильм очень классный, рекомендую

Подтверждаю.. отличное кино.piratbit.org



09-05-2017 14:51 Золото Скачать торрент  

w.a.s.p. писал(а):

cfiekmrf писал(а):

Фильм очень классный, рекомендую

Подтверждаю.. отличное кино.

Надо тогда смотреть!piratbit.org



09-05-2017 16:27 Золото Скачать торрент  

неплохое кино. не слушайте кто обсерет)))piratbit.org



09-05-2017 20:41 Золото Скачать торрент  

Редкий в наше время фильм. Советую.piratbit.org



10-05-2017 09:11 Золото Скачать торрент  

Стоящий фильм! piratbit.org



11-05-2017 20:57 Золото Скачать торрент  

хороший с хорошим концомpiratbit.org



14-05-2017 20:25 Золото Скачать торрент  

ФИЛЬМ ОТЛИЧНЫЙ СТАВЛЮ 8ИЗ10piratbit.org



    Дорогой пользователь! Огромная просьба, поблагодарите релизера, оцените раздачу и оставьте свои комментарий, если Вы скачали Золото через торрент бесплатно! Внесите свою лепту в развитие PiratBit!
    Комментировать посты могут только пользователи прошедшие не сложную регистрацию
    Показать сообщения:    

    Золото через торрент
    Скачать бесплатно Золото
    Золото скачать торрент
    Золото смотреть онлайн
    Cкачать фильм Золото бесплатно
    Золото скачать торрент в хорошем качестве
    Золото смотреть онлайн бесплатно в хорошем качестве


    Вы не можете начинать темы
    Вы не можете отвечать на сообщения
    Вы не можете редактировать свои сообщения
    Вы не можете удалять свои сообщения
    Вы не можете голосовать в опросах
    Вы не можете прикреплять файлы к сообщениям
    Вы можете скачивать файлы