Лицензия

MVO

1

1 сезон

Лицензия

Лицензия

13

MVO

1 сезон

Deluxe Edition

pack

Рекомендуем

30

Repack

ВАЖНО

ВАЖНО

Ghostwire

RePack

jed

RePack

fifa19

RePack

RDR2

RePack

NEED FOR SPEED™ PAYBACK

RePack

Кинопоиск HD

 Острые козырьки 6 сезон

6 сезон

FAR CRY 6

RePack

Лицензия

MVO

1

1 сезон

1 сезон

Лицензия

  

Стакан воды (Александр Усольцев-Гарф) [1957, СССР, комедия, история, SATRip от AVP Studio]

Стакан воды через торрент piratbit.org

Размер: 1.46 GB | Добавлен: 5 лет 4 мес. назад | Торрент скачан:7 раз
Смотреть онлайн Стакан воды | Скачать   

10-05-2017 08:21 Стакан воды Скачать торрент  

Стакан воды
Страна: СССР
Производство: Моснаучфильм

Жанр: комедия, история
Год выпуска: 1957
Продолжительность: 01:32:46

Перевод: Не требуется
Cубтитры: нет
Оригинальная аудиодорожка: русский

Режиссер: Александр Усольцев-Гарф

В ролях:
Татьяна Еремеева, Елена Гоголева, Евгений Велихов, Лилия Юдина, Николай Афанасьев, Владимир Вилль, Олег Федоровский...
Об актёрах подробней

Описание:
Экранизация спектакля, поставленного Малым театром, по одноименной комедии Эжена Скриба.
Действие происходит в 1714 году в лондонском королевском дворце Сент-Джеймс. Герцогиня Мальборо, фаворитка безвольной королевы, умело правит государством. Ее политический противник бывший министр лорд Болингброк, мечтая восстановить свое влияние при дворе, успешно ведет против герцогини хитроумную войну, используя соперничество королевы и герцогини Мальборо, влюбленных в молодого офицера Мешема.

Источник: DVB
Качество видео: SATRip
Формат видео: AVI

Видео: 720x544 (4:3), 25 fps, XviD ~ 2051 kbps avg, 0.209 bit/pixel
Аудио: 48 kHz, Dolby Digital AC3 2.0, 192 kbps

Раздача от:
Общее
Полное имя : Stakan.vody.1957.SATRip_[New-team]_by_AVP_Studio.avi
Формат : AVI
Формат/Информация : Audio Video Interleave
Размер файла : 1,46 Гбайт
Продолжительность : 1 ч. 32 м.
Общий поток : 2253 Кбит/сек
Программа кодирования : VirtualDubMod 1.5.10.3 | www.virtualdub-fr.org || (build 2550/release)
Библиотека кодирования : VirtualDubMod build 2550/release

Видео
Идентификатор : 0
Формат : MPEG-4 Visual
Профиль формата : Advanced Simple@L5
Параметр BVOP формата : 1
Параметр QPel формата : Нет
Параметр GMC формата : Без точки перехода
Параметр матрицы формата : Выборочная
Идентификатор кодека : XVID
Идентификатор кодека/Подсказка : XviD
Продолжительность : 1 ч. 32 м.
Битрейт : 2051 Кбит/сек
Ширина : 720 пикселей
Высота : 544 пикселя
Соотношение сторон : 4:3
Частота кадров : 25,000 кадров/сек
Цветовое пространство : YUV
Субдискретизация насыщенности : 4:2:0
Битовая глубина : 8 бит
Тип развёртки : Прогрессивная
Метод сжатия : С потерями
Бит/(Пиксели*Кадры) : 0.209
Размер потока : 1,33 Гбайт (91%)
Библиотека кодирования : XviD 73

Аудио
Идентификатор : 1
Формат : AC-3
Формат/Информация : Audio Coding 3
Параметр Endianness формата : Big
Идентификатор кодека : 2000
Продолжительность : 1 ч. 32 м.
Вид битрейта : Постоянный
Битрейт : 192 Кбит/сек
Каналы : 2 канала
Расположение каналов : Front: L R
Частота : 48,0 КГц
Частота кадров : 31,250 кадров/сек (1536 spf)
Битовая глубина : 16 бит
Метод сжатия : С потерями
Размер потока : 127 Мбайт (9%)
Выравнивание : Разделение по промежуткам
Продолжительность промежутка : 40 мс. (1,00 видеокадр)
Время предзагрузки промежутка : 500 мс



Скачать Стакан воды через торрент http://s018.radikal.ru/i505/1705/81/d2a4137b29cc.png Скачать, смотреть онлайн Стакан воды бесплантно в хорошем качестве Описание:Экранизация спектакля, поставленного Малым театром, по одноименной комедии Эжена Скриба.Действие происходит в 1714 году в ... 5 10 1
Info! Золотая раздача, скачанное не засчитывается.
Торрент: Зарегистрирован [2017-05-10 08:21] · скачан: 7 раз
Статус: √ проверено
Размер: 1.46 GB
Как cкачать? Как скачать Стакан воды через торрент | UTorrent

% Раздел Тема Автор DL S | L
Кино СССР [ 1.46 GB ] Стакан воды | | SATRip-AVC от AVP Studio AVP Studio Скачать
1 | 0
Кино СССР [ 745 MB ] Стакан воды | | SATRip от AVP Studio AVP Studio Скачать
1 | 0

28-11-2019 20:33  

Отключить вcю реклaмy на сайте

    Дорогой пользователь! Огромная просьба, поблагодарите релизера, оцените раздачу и оставьте свои комментарий, если Вы скачали Стакан воды через торрент бесплатно!!
    Комментировать посты могут только пользователи прошедшие не сложную регистрацию
    Показать сообщения:    


    Стакан воды через торрент
    Скачать бесплатно Стакан воды
    Стакан воды скачать торрент
    Стакан воды смотреть онлайн
    Cкачать фильм Стакан воды бесплатно
    Стакан воды скачать торрент в хорошем качестве
    Стакан воды смотреть онлайн бесплатно в хорошем качестве
    Вы не можете начинать темы
    Вы не можете отвечать на сообщения
    Вы не можете редактировать свои сообщения
    Вы не можете удалять свои сообщения
    Вы не можете голосовать в опросах
    Вы не можете прикреплять файлы к сообщениям
    Вы можете скачивать файлы