1 сезон

3 сезон

iTunes

1

iTunes

DUB Netflix

iTunes

13

1 сезон

RePack

30

Deluxe

pack

Легкие деньги

ВАЖНО

ИГРА 18+

pack

RePack

MK11

RePack

jed

RePack

fifa19

RePack

RDR2

RePack

NEED FOR SPEED™ PAYBACK

4 сезон

9 сезон

Бесстыжие 9 сезон

Все сериалы

все сериалы на PB.wtf

RePack

FAR CRY 5

Anonymous, добрый вечер, мы не успеваем до 1 числа собрать деньги на оплату серверов, помогите нам пожалуйста в это трудное время. В качестве благодарности мы отключим Вам всю рекламу на сайте (укажите свой ник в строку Ваше имя)!

×
  
Magnet ссылка

Великая стена / The Great Wall (Имоу Чжан) [2016, Фэнтези, боевик, триллер, приключения, HDRip-AVC] DUB [iTunes] piratbit.org

Великая стена через торрент piratbit.org

Размер: 1.46 GB | Добавлен: 4 года 1 мес. назад | Торрент скачан:146 раз
Скачать  

10-05-2017 17:52 Великая стена Скачать торрент  

Великая стена / The Great Wall
Год выпуска: 2016
Страна: Китай, США
Жанр: Фэнтези, боевик, триллер, приключения
Продолжительность: 01:43:03
Перевод: Дубляж - [iTunes]
Субтитры: Английские (полные) вшитые отключаемые UTF-8

Режиссер: Имоу Чжан

rating

В ролях:

Мэтт Дэймон, Тянь Цзин, Педро Паскаль, Лу Хан, Уиллем Дефо, Энди Лау, Эдди Пэн, Нуман Акар, Кенни Лин, Ханьюй Чжан, Вики Юй, Лю Бин, Чжэн Кай, Джонни Чикко, Чэни Чэнь, Кэрри Ван

Описание:

На протяжении многих столетий каждые 60 лет на Великую стену набегают мифические пожиратели плоти, чередуясь с монголами и опиумными караванами. Двое европейских наемников из отсталых стран невольно оказываются втянутыми в круговорот веществ внутри пищевой цепи. Теперь им нужно решить для себя сложную нравственную дилемму - без шума и пыли вывезти пригоршню взрывающегося черного порошка, или все-таки помочь разноцветным войскам Поднебесной остановить вторжение орд кошмарных тварей.

Качество: HDRip-AVC
Формат: MKV
Видео кодек: H.264
Аудио кодек: AC3

Видео: 720x300 (2.40:1), 23,976 fps, x264 ~1642 kbps avg, 0.317 bit/pixel
Аудио#1: 48 kHz, Audio Coding 3, 5,1 ch, ~384 kbps | RUS (iTunes)
скриншот   скриншот   скриншот   скриншот   скриншот  

Общее
Уникальный идентификатор : 175744059024755859060868008874680497646 (0x84371317D4ED00C386783F0A8E87B5EE)
Полное имя : D:TempThe.Great.Wall.2016.HDRip-AVC 1.46 .OlLanDGroup.mkv
Формат : Matroska
Версия формата : Version 4 / Version 2
Размер файла : 1,46 Гбайт
Продолжительность : 1 ч. 43 м.
Общий поток : 2027 Кбит/сек
Название фильма : The.Great.Wall.2016.HDRip-AVC 1.46 .OlLanDGroup
Дата кодирования : UTC 2017-05-10 12:47:13
Программа кодирования : mkvmerge v11.0.0 ('Alive') 64bit
Библиотека кодирования : libebml v1.3.4 + libmatroska v1.4.5
DURATION : 01:29:18.103000000
NUMBER_OF_FRAMES : 867
NUMBER_OF_BYTES : 21734
_STATISTICS_WRITING_APP : mkvmerge v11.0.0 ('Alive') 64bit
_STATISTICS_WRITING_DATE_UTC : 2017-05-10 12:47:13
_STATISTICS_TAGS : BPS DURATION NUMBER_OF_FRAMES NUMBER_OF_BYTES

Видео
Идентификатор : 1
Формат : AVC
Формат/Информация : Advanced Video Codec
Профиль формата : High@L4.1
Параметр CABAC формата : Да
Параметр ReFrames формата : 10 кадров
Идентификатор кодека : V_MPEG4/ISO/AVC
Продолжительность : 1 ч. 43 м.
Битрейт : 1642 Кбит/сек
Ширина : 720 пикселей
Высота : 300 пикселей
Соотношение сторон : 2,40:1
Режим частоты кадров : Постоянный
Частота кадров : 23,976 кадра/сек
Цветовое пространство : YUV
Субдискретизация насыщенности : 4:2:0
Битовая глубина : 8 бит
Тип развёртки : Прогрессивная
Бит/(Пиксели*Кадры) : 0.317
Размер потока : 1,15 Гбайт (79%)
Библиотека кодирования : x264 core 146 r2538 121396c
Настройки программы : cabac=1 / ref=10 / deblock=1:-3:-3 / analyse=0x3:0x133 / me=umh / subme=11 / psy=1 / psy_rd=1.00:0.07 / mixed_ref=1 / me_range=48 / chroma_me=1 / trellis=2 / 8x8dct=1 / cqm=0 / deadzone=21,11 / fast_pskip=0 / chroma_qp_offset=-3 / threads=6 / lookahead_threads=1 / sliced_threads=0 / nr=0 / decimate=0 / interlaced=0 / bluray_compat=0 / constrained_intra=0 / bframes=10 / b_pyramid=2 / b_adapt=2 / b_bias=0 / direct=3 / weightb=1 / open_gop=0 / weightp=2 / keyint=240 / keyint_min=23 / scenecut=40 / intra_refresh=0 / rc_lookahead=40 / rc=2pass / mbtree=0 / bitrate=1642 / ratetol=1.0 / qcomp=0.60 / qpmin=0 / qpmax=69 / qpstep=4 / cplxblur=20.0 / qblur=0.5 / vbv_maxrate=50000 / vbv_bufsize=62500 / nal_hrd=none / filler=0 / ip_ratio=1.40 / pb_ratio=1.30 / aq=1:1.00
Язык : English
Default : Да
Forced : Нет
Основные цвета : BT.709
Характеристики трансфера : BT.709
Коэффициенты матрицы : BT.709

Аудио
Идентификатор : 2
Формат : AC-3
Формат/Информация : Audio Coding 3
Расширение режима : CM (complete main)
Параметр Endianness формата : Big
Идентификатор кодека : A_AC3
Продолжительность : 1 ч. 43 м.
Вид битрейта : Постоянный
Битрейт : 384 Кбит/сек
Каналы : 6 каналов
Расположение каналов : Front: L C R, Side: L R, LFE
Частота : 48,0 КГц
Битовая глубина : 16 бит
Метод сжатия : С потерями
Размер потока : 283 Мбайт (19%)
Заголовок : Dub | DD 5.1 @ 384 kbps iTunes Russia
Язык : Russian
Default : Да
Forced : Нет

Текст
Идентификатор : 3
Формат : UTF-8
Идентификатор кодека : S_TEXT/UTF8
Идентификатор кодека/Информация : UTF-8 Plain Text
Язык : English
Default : Нет
Forced : Нет

Меню
00:00:00.000 : en:Chapter 01
00:05:58.358 : en:Chapter 02
00:11:47.540 : en:Chapter 03
00:16:53.679 : en:Chapter 04
00:20:13.254 : en:Chapter 05
00:25:11.009 : en:Chapter 06
00:28:55.317 : en:Chapter 07
00:33:57.744 : en:Chapter 08
00:37:54.147 : en:Chapter 09
00:42:42.935 : en:Chapter 10
00:46:18.943 : en:Chapter 11
00:50:27.691 : en:Chapter 12
00:56:46.069 : en:Chapter 13
01:01:58.048 : en:Chapter 14
01:07:12.820 : en:Chapter 15
01:12:08.533 : en:Chapter 16
01:18:20.863 : en:Chapter 17
01:23:25.083 : en:Chapter 18
01:27:26.158 : en:Chapter 19
01:31:14.386 : en:Chapter 20

piratbit.org



Скачать Великая стена через торрент http://img11.lostpic.net/2017/04/12/d117865388185ac919d437a3a094438e.jpg Скачать фильм Великая стена через торрент бесплантно в хорошем качестве Описание: На протяжении многих столетий каждые 60 лет на Великую стену набегают мифические пожиратели плоти, чередуясь с монголами и ... 10 10 5
Торрент: Зарегистрирован [2017-05-10 17:52] · скачан: 146 раз
Статус: √ проверено
Размер: 1.46 GB
Как cкачать? Как скачать Великая стена через торрент | UTorrent

% Раздел Тема Автор DL S | L
Ultra HD (UHD: 2K, 4K, 8K) — видео сверхвысокой чёткости [ 57.3 GB ] Великая стена / The Great Wall [2016 UHD BDRemux 2160p] DUB [] + 2xAVO sheker187 Скачать
1 | 0
Ultra HD (UHD: 2K, 4K, 8K) — видео сверхвысокой чёткости [ 24.89 GB ] Великая стена / The Great Wall [2016 UHD BDRip 2160p] [SDR] DUB sheker187 Скачать
1 | 0
Ultra HD (UHD: 2K, 4K, 8K) — видео сверхвысокой чёткости [ 60.03 GB ] Великая стена / The Great Wall [2016 UHD Blu-ray 2160p] [custom] DUB [] bober100 Скачать
1 | 0
Ultra HD (UHD: 2K, 4K, 8K) — видео сверхвысокой чёткости [ 51.08 GB ] Великая стена / The Great Wall [2016 UHD BDRemux 2160p] VO [Е. Солодухин] +DUB [] bober100 Скачать
1 | 0
Фильмы (Blu-ray, BD-Remux, HDDVD) [ 25.36 GB ] Великая стена / The Great Wall [2016 BD Remux 1080p] DUB [] bober100 Скачать
1 | 0
Фильмы (Blu-ray, BD-Remux, HDDVD) [ 41.84 GB ] Великая стена / The Great Wall [2016 Blu-ray CEE 1080p] DUB [] bober100 Скачать
1 | 0
Фильмы [HD 720p, 1080p] (Хороший звук DUB, MVO) [ 6.73 GB ] Великая стена / The Great Wall [2016 BDRip 1080p] potroks Скачать
1 | 0

28-11-2019 20:33  

Отключить всю рекламу на сайте

    Дорогой пользователь! Огромная просьба, поблагодарите релизера, оцените раздачу и оставьте свои комментарий, если Вы скачали Великая стена через торрент бесплатно! Внесите свою лепту в развитие PiratBit!
    Комментировать посты могут только пользователи прошедшие не сложную регистрацию
    Показать сообщения:    

    Великая стена через торрент
    Скачать бесплатно Великая стена
    Великая стена скачать торрент
    Великая стена смотреть онлайн
    Cкачать фильм Великая стена бесплатно
    Великая стена скачать торрент в хорошем качестве
    Великая стена смотреть онлайн бесплатно в хорошем качестве


    Вы не можете начинать темы
    Вы не можете отвечать на сообщения
    Вы не можете редактировать свои сообщения
    Вы не можете удалять свои сообщения
    Вы не можете голосовать в опросах
    Вы не можете прикреплять файлы к сообщениям
    Вы можете скачивать файлы