1 сезон

3 сезон

iTunes

1

iTunes

DUB Netflix

iTunes

13

1 сезон

RePack

30

Deluxe

pack

Легкие деньги

ВАЖНО

ИГРА 18+

pack

RePack

MK11

RePack

jed

RePack

fifa19

RePack

RDR2

RePack

NEED FOR SPEED™ PAYBACK

4 сезон

9 сезон

Бесстыжие 9 сезон

Все сериалы

все сериалы на PB.wtf

RePack

FAR CRY 5

Anonymous, добрый вечер, мы не успеваем до 1 числа собрать деньги на оплату серверов, помогите нам пожалуйста в это трудное время. В качестве благодарности мы отключим Вам всю рекламу на сайте (укажите свой ник в строку Ваше имя)!

×
  
Magnet ссылка

Идеаль / L'idéal (Фредерик Бегбедер) [2016 г., комедия, WEB-DLRip, Дубляж iTunes] piratbit.org

Идеаль через торрент piratbit.org

Размер: 1.37 GB | Добавлен: 4 года 1 мес. назад | Торрент скачан:527 раз
Скачать  

20-05-2017 02:33 Идеаль Скачать торрент  

Идеаль / L'idéal
Год выпуска: 2016
Страна: Франция
Жанр: комедия
Продолжительность: 01:31:20
Перевод: Дубляж iTunes
Субтитры: нет

Режиссер: Фредерик Бегбедер

rating

В ролях: Гаспар Пруст, Одри Флеро, Анамария Вартоломей, Джонатан Ламбер, Камилль Роу, Саболч Альб, Ксавье Алькан, Клеман Андре, Том Ауденарт, Николет Барабас

Описание: «Американки слишком здоровые, француженки слишком капризные, немки слишком спортивные, японки слишком покорные, итальянки слишком ревнивые, англичанки слишком пьющие, голландки слишком раскрепощенные, испанки слишком томные! Остаются русские, обладающие особой красотой и необъяснимой властью над людьми». - в этом был убежден Октав, скаут крупнейшей косметической компании «Идеаль», отправляясь в Россию.

Доп. информация: Рекламы нет

Качество: WEB-DLRip
Формат: AVI
Видео кодек: XviD
Аудио кодек: AC3
Видео: 720x304 (2.37:1), 24 fps, XviD build 50 ~1748 kbps avg, 0.33 bit/pixel
Аудио#1: 48 kHz, AC3 Dolby Digital, 3/2 (L,C,R,l,r) + LFE ch, ~384 kbps




General
Complete name : H:\релизы.торрентфайл\IdeaLL.2O16.D.WEB-DLRip.14OOMB.avi
Format : AVI
Format/Info : Audio Video Interleave
File size : 1.37 GiB
Duration : 1h 31mn
Overall bit rate : 2 142 Kbps
Writing application : VirtualDubMod 1.5.10.2 (build 2540/release)
Writing library : VirtualDubMod build 2540/release

Video
ID : 0
Format : MPEG-4 Visual
Format profile : Advanced Simple@L5
Format settings, BVOP : 2
Format settings, QPel : No
Format settings, GMC : No warppoints
Format settings, Matrix : Default (MPEG)
Codec ID : XVID
Codec ID/Hint : XviD
Duration : 1h 31mn
Bit rate : 1 749 Kbps
Width : 720 pixels
Height : 304 pixels
Display aspect ratio : 2.35:1
Frame rate : 24.000 fps
Color space : YUV
Chroma subsampling : 4:2:0
Bit depth : 8 bits
Scan type : Progressive
Compression mode : Lossy
Bits/(Pixel*Frame) : 0.333
Stream size : 1.12 GiB (82%)
Writing library : XviD 1.2.1 (UTC 2008-12-04)

Audio
ID : 1
Format : AC-3
Format/Info : Audio Coding 3
Mode extension : CM (complete main)
Format settings, Endianness : Big
Codec ID : 2000
Duration : 1h 31mn
Bit rate mode : Constant
Bit rate : 384 Kbps
Channel(s) : 6 channels
Channel positions : Front: L C R, Side: L R, LFE
Sampling rate : 48.0 KHz
Bit depth : 16 bits
Compression mode : Lossy
Stream size : 251 MiB (18%)
Alignment : Split accross interleaves
Interleave, duration : 42 ms (1.00 video frame)
Interleave, preload duration : 500 ms

piratbit.org



Скачать Идеаль через торрент http://i4.imageban.ru/out/2017/05/19/d270940a2c26616a0b021fe30f675368.png Скачать фильм Идеаль через торрент бесплантно в хорошем качестве Описание: «Американки слишком здоровые, француженки слишком капризные, немки слишком спортивные, японки слишком покорные, итальянки слишком ... 6.5 10 2
Торрент: Зарегистрирован [2017-05-20 02:33] · скачан: 527 раз
Статус: √ проверено
Размер: 1.37 GB
Как cкачать? Как скачать Идеаль через торрент | UTorrent

28-11-2019 20:33  

Отключить всю рекламу на сайте

    Дорогой пользователь! Огромная просьба, поблагодарите релизера, оцените раздачу и оставьте свои комментарий, если Вы скачали Идеаль через торрент бесплатно! Внесите свою лепту в развитие PiratBit!
    Комментировать посты могут только пользователи прошедшие не сложную регистрацию
    Показать сообщения:    

    Идеаль через торрент
    Скачать бесплатно Идеаль
    Идеаль скачать торрент
    Идеаль смотреть онлайн
    Cкачать фильм Идеаль бесплатно
    Идеаль скачать торрент в хорошем качестве
    Идеаль смотреть онлайн бесплатно в хорошем качестве


    Вы не можете начинать темы
    Вы не можете отвечать на сообщения
    Вы не можете редактировать свои сообщения
    Вы не можете удалять свои сообщения
    Вы не можете голосовать в опросах
    Вы не можете прикреплять файлы к сообщениям
    Вы можете скачивать файлы