Доктор Стрэндж

Лицензия

Добыча

MVO

Дом дракона

1 сезон

Тор

Лицензия

Мэверик

Лицензия

Там, где раки поют

MVO

Властелин колец

1 сезон

Ultimate

pack

Рекомендуем

30

Repack

ВАЖНО

ВАЖНО

Ghostwire

RePack

jed

RePack

nioh2

RePack

RDR2

RePack

NEED FOR SPEED™ PAYBACK

RePack

скачать торрент

Кинопоиск HD

Острые козырьки 6 сезон

6 сезон

FAR CRY 6

RePack

скачать торрент

Лицензия

скачать торрент

MVO

1

1 сезон

скачать торрент

1 сезон

скачать торрент

Лицензия

  

Фронт за линией фронта (Игорь Гостев) [1977, СССР, военный, DVDRip от AVP Studio]

Фронт за линией фронта через торрент piratbit.org

Размер: 1.46 GB | Добавлен: 5 лет 4 мес. назад | Торрент скачан:16 раз
Смотреть онлайн | Скачать   

20-05-2017 09:38 Фронт за линией фронта Скачать торрент  

Фронт за линией фронта
Страна: СССР
Производство: Мосфильм

Жанр: военный
Год выпуска: 1977
Продолжительность: 02:44:01

Перевод: Не требуется
Cубтитры: нет
Оригинальная аудиодорожка: русский

Режиссер: Игорь Гостев

В ролях:
Вячеслав Тихонов, Иван Лапиков, Евгений Матвеев, Галина Польских, Валерия Заклунная, Олег Жаков, Иван Переверзев, Юрий Толубеев, Ханньо Хассе, Харри Пич, Гиртс Яковлевс, Игорь Ледогоров, Георгий Николаенко, Мати Клоорен, Михаил Жарковский, Александр Романцов, Афанасий Кочетков, Марина Дюжева, Светлана Суховей, Татьяна Божок, Тофик Мирзоев, Виктор Шульгин, Евгений Шутов, Анатолий Соловьёв, Майя Булгакова, Нина Меньшикова, Андро Кобаладзе, Владимир Самойлов, Владислав Стржельчик, Пётр Чернов, Анвар Боранбаев, Евгений Леонов-Гладышев, Александр Лукьянов (II), Николай Полищук, Игорь Ясулович, Борис Юрченко, Алексей Горячев, Юра Касаткин, Лев Поляков, Роман Хомятов, Эрвин Кнаусмюллер, Игорь Безяев, Владимир Ткалич, Шота Мшвениерадзе...
Об актёрах подробней

Описание:
По роману С. Цвигуна «Мы вернемся».
Широкоформатный фильм продолжает повествование военного киноромана "Фронт без флангов". События происходят на рубеже переломного 1943 и наступательного 1944 года. Следующий фильм трилогии - "Фронт в тылу врага".

Источник: DVD9 R5
Качество видео: DVDRip
Формат видео: AVI

Видео: 688x288 (2,40:1), 25 fps, XviD ~ 1072 kbps avg, 0.216 bit/pixel
Аудио: 48 kHz, Dolby Digital AC3 2.0, 192 kbps

Раздача от:
Общее
Полное имя : Front.za.liniey.fronta.1977.DVDRip_[New-team]_by_AVP_Studio.avi
Формат : AVI
Формат/Информация : Audio Video Interleave
Размер файла : 1,46 Гбайт
Продолжительность : 2 ч. 44 м.
Общий поток : 1274 Кбит/сек
Программа кодирования : VirtualDubMod 1.5.10.3 | www.virtualdub-fr.org || (build 2550/release)
Библиотека кодирования : VirtualDubMod build 2550/release

Видео
Идентификатор : 0
Формат : MPEG-4 Visual
Профиль формата : Advanced Simple@L5
Параметр BVOP формата : 1
Параметр QPel формата : Нет
Параметр GMC формата : Без точки перехода
Параметр матрицы формата : Выборочная
Идентификатор кодека : XVID
Идентификатор кодека/Подсказка : XviD
Продолжительность : 2 ч. 44 м.
Битрейт : 1072 Кбит/сек
Ширина : 688 пикселей
Высота : 288 пикселей
Соотношение сторон : 2,40:1
Частота кадров : 25,000 кадров/сек
Цветовое пространство : YUV
Субдискретизация насыщенности : 4:2:0
Битовая глубина : 8 бит
Тип развёртки : Прогрессивная
Метод сжатия : С потерями
Бит/(Пиксели*Кадры) : 0.216
Размер потока : 1,23 Гбайт (84%)
Библиотека кодирования : XviD 73

Аудио
Идентификатор : 1
Формат : AC-3
Формат/Информация : Audio Coding 3
Параметр Endianness формата : Big
Идентификатор кодека : 2000
Продолжительность : 2 ч. 44 м.
Вид битрейта : Постоянный
Битрейт : 192 Кбит/сек
Каналы : 2 канала
Расположение каналов : Front: L R
Частота : 48,0 КГц
Частота кадров : 31,250 кадров/сек (1536 spf)
Битовая глубина : 16 бит
Метод сжатия : С потерями
Размер потока : 225 Мбайт (15%)
Выравнивание : Разделение по промежуткам
Продолжительность промежутка : 40 мс. (1,00 видеокадр)
Время предзагрузки промежутка : 500 мс



Скачать Фронт за линией фронта через торрент http://s019.radikal.ru/i621/1705/04/4cc0d89fbd0b.png Скачать, смотреть онлайн Фронт за линией фронта бесплантно в хорошем качестве Описание:По роману С. Цвигуна «Мы вернемся».Широкоформатный фильм продолжает повествование военного киноромана "Фронт без флангов". События ... 10 10 1
Info! Золотая раздача, скачанное не засчитывается.
Торрент: Зарегистрирован [2017-05-20 09:38] · скачан: 16 раз
Статус: √ проверено
Размер: 1.46 GB
Как cкачать? Как скачать Фронт за линией фронта через торрент | UTorrent

% Раздел Тема Автор DL S | L
Кино СССР [ 1.46 GB ] Фронт за линией фронта | | DVDRip-AVC от AVP Studio AVP Studio Скачать
1 | 0
Кино СССР [ 6.16 GB ] Фронт / Трилогия / Фильм 1: Фронт без флангов / Фильм 2: Фронт за линией фронта / Фильм 3: Фронт в тылу врага | | DVDRip lug30 Скачать
1 | 0

28-11-2019 20:33  


Отключить вcю реклaмy на сайте, в т.ч. и в плеере онлайн просмотра!

    Дорогой пользователь! Огромная просьба, поблагодарите релизера, оцените раздачу и оставьте свои комментарий, если Вы скачали Фронт за линией фронта через торрент бесплатно!!
    Комментировать посты могут только пользователи прошедшие не сложную регистрацию
    Показать сообщения:    


    Фронт за линией фронта через торрент
    Скачать бесплатно Фронт за линией фронта
    Фронт за линией фронта скачать торрент
    Фронт за линией фронта смотреть онлайн
    Cкачать фильм Фронт за линией фронта бесплатно
    Фронт за линией фронта скачать торрент в хорошем качестве
    Фронт за линией фронта смотреть онлайн бесплатно в хорошем качестве
    Вы не можете начинать темы
    Вы не можете отвечать на сообщения
    Вы не можете редактировать свои сообщения
    Вы не можете удалять свои сообщения
    Вы не можете голосовать в опросах
    Вы не можете прикреплять файлы к сообщениям
    Вы можете скачивать файлы