Лицензия

MVO

1

1 сезон

Лицензия

Лицензия

13

MVO

1 сезон

Deluxe Edition

pack

Рекомендуем

30

Repack

ВАЖНО

ВАЖНО

Ghostwire

RePack

jed

RePack

fifa19

RePack

RDR2

RePack

NEED FOR SPEED™ PAYBACK

RePack

Кинопоиск HD

 Острые козырьки 6 сезон

6 сезон

FAR CRY 6

RePack

Лицензия

MVO

1

1 сезон

1 сезон

Лицензия

  

Люди и звери (Сергей Герасимов) [1962, Германия (ГДР), СССР, драма, DVDRip от AVP Studio]

Люди и звери через торрент piratbit.org

Размер: 2.91 GB | Добавлен: 5 лет 2 мес. назад | Торрент скачан:1 раз
Смотреть онлайн Люди и звери | Скачать   

28-05-2017 09:41 Люди и звери Скачать торрент  

Люди и звери
Страна: Германия (ГДР), СССР
Производство: Киностудия им. Горького, ДЕФА

Жанр: драма
Год выпуска: 1962
Продолжительность: 03:19:42 (01:35:36 + 01:44:06)

Перевод: Не требуется
Cубтитры: нет
Оригинальная аудиодорожка: русский

Режиссер: Сергей Герасимов

В ролях:
Николай Ерёменко (ст.), Тамара Макарова, Жанна Болотова, Виталий Доронин, Наталья Медведева, Сергей Никоненко, Олеся Иванова, Анастасия Филиппова (Горина), Михаил Глузский, Вадим Захарченко, Татьяна Гаврилова, Сергей Герасимов, Мария Рувель, Фридрих Вильгельм Юнге, Петер Ройссе, Вернер Тёльке...
Об актёрах подробней

Описание:
В основе сюжета — драматическая судьба советского офицера Алексея Павлова. Попав в январе 1942 года подо Мгой в плен и, оказавшись в числе перемещенных лиц, герой не сразу решился на возвращение в СССР. Поскитавшись по чужбине 17 лет, Алексей все же вернулся на родину. Случайные попутчицы, ехавшие из Москвы на юг, — врач Анна Андреевна и ее дочь Таня — стали первыми, кому Павлов поведал о своих мытарствах.

Источник: 2хDVD9 R5
Качество видео: DVDRip
Формат видео: AVI

Видео: 704x528 (4:3), 25 fps, XviD ~ 1627 kbps avg, 0.175 bit/pixel
Аудио: 48 kHz, Dolby Digital AC3 5.1, 448 kbps

Раздача от:
Общее
Полное имя : Lyudi.i.zveri.1962.DVDRip_[New-team]_by_AVP_Studio.avi
Формат : AVI
Формат/Информация : Audio Video Interleave
Размер файла : 1,39 Гбайт
Продолжительность : 1 ч. 35 м.
Общий поток : 2084 Кбит/сек
Программа кодирования : VirtualDubMod 1.5.10.3 | www.virtualdub-fr.org || (build 2550/release)
Библиотека кодирования : VirtualDubMod build 2550/release

Видео
Идентификатор : 0
Формат : MPEG-4 Visual
Профиль формата : Advanced Simple@L5
Параметр BVOP формата : 1
Параметр QPel формата : Нет
Параметр GMC формата : Без точки перехода
Параметр матрицы формата : Выборочная
Идентификатор кодека : XVID
Идентификатор кодека/Подсказка : XviD
Продолжительность : 1 ч. 35 м.
Битрейт : 1627 Кбит/сек
Ширина : 704 пикселя
Высота : 528 пикселей
Соотношение сторон : 4:3
Частота кадров : 25,000 кадров/сек
Цветовое пространство : YUV
Субдискретизация насыщенности : 4:2:0
Битовая глубина : 8 бит
Тип развёртки : Прогрессивная
Метод сжатия : С потерями
Бит/(Пиксели*Кадры) : 0.175
Размер потока : 1,09 Гбайт (78%)
Библиотека кодирования : XviD 73

Аудио
Идентификатор : 1
Формат : AC-3
Формат/Информация : Audio Coding 3
Параметр Endianness формата : Big
Идентификатор кодека : 2000
Продолжительность : 1 ч. 35 м.
Вид битрейта : Постоянный
Битрейт : 448 Кбит/сек
Каналы : 6 каналов
Расположение каналов : Front: L C R, Side: L R, LFE
Частота : 48,0 КГц
Частота кадров : 31,250 кадров/сек (1536 spf)
Битовая глубина : 16 бит
Метод сжатия : С потерями
Размер потока : 306 Мбайт (21%)
Выравнивание : Разделение по промежуткам
Продолжительность промежутка : 40 мс. (1,00 видеокадр)
Время предзагрузки промежутка : 500 мс



Скачать Люди и звери через торрент http://s013.radikal.ru/i322/1705/d9/ad846449f2ab.png Скачать, смотреть онлайн Люди и звери бесплантно в хорошем качестве Описание:В основе сюжета — драматическая судьба советского офицера Алексея Павлова. Попав в январе 1942 года подо Мгой в плен и, оказавшись ... 10 10 2
Info! Золотая раздача, скачанное не засчитывается.
Торрент: Зарегистрирован [2017-07-19 06:27] · скачан: 1 раз
Статус: √ проверено
Размер: 2.91 GB
Как cкачать? Как скачать Люди и звери через торрент | UTorrent

% Раздел Тема Автор DL S | L
Кино СССР [ 2.91 GB ] Люди и звери | | DVDRip-AVC от AVP Studio AVP Studio Скачать
1 | 0
Кино СССР [ 1.46 GB ] Люди и звери | | DVDRip от AVP Studio AVP Studio Скачать
1 | 0

28-11-2019 20:33  

Отключить вcю реклaмy на сайте

    Дорогой пользователь! Огромная просьба, поблагодарите релизера, оцените раздачу и оставьте свои комментарий, если Вы скачали Люди и звери через торрент бесплатно!!
    Комментировать посты могут только пользователи прошедшие не сложную регистрацию
    Показать сообщения:    


    Люди и звери через торрент
    Скачать бесплатно Люди и звери
    Люди и звери скачать торрент
    Люди и звери смотреть онлайн
    Cкачать фильм Люди и звери бесплатно
    Люди и звери скачать торрент в хорошем качестве
    Люди и звери смотреть онлайн бесплатно в хорошем качестве
    Вы не можете начинать темы
    Вы не можете отвечать на сообщения
    Вы не можете редактировать свои сообщения
    Вы не можете удалять свои сообщения
    Вы не можете голосовать в опросах
    Вы не можете прикреплять файлы к сообщениям
    Вы можете скачивать файлы