Лицензия

MVO

1

1 сезон

Лицензия

Лицензия

13

MVO

1 сезон

Deluxe Edition

pack

Рекомендуем

30

Repack

ВАЖНО

ВАЖНО

Ghostwire

RePack

jed

RePack

fifa19

RePack

RDR2

RePack

NEED FOR SPEED™ PAYBACK

RePack

Кинопоиск HD

 Острые козырьки 6 сезон

6 сезон

FAR CRY 6

RePack

Лицензия

MVO

1

1 сезон

1 сезон

Лицензия

  

Люди и звери (Сергей Герасимов) [1962, Германия (ГДР), СССР, драма, DVDRip-AVC от AVP Studio]

Люди и звери через торрент piratbit.org

Размер: 2.91 GB | Добавлен: 5 лет 2 мес. назад | Торрент скачан:2 раза
Смотреть онлайн Люди и звери | Скачать   

28-05-2017 09:43 Люди и звери Скачать торрент  

Люди и звери
Страна: Германия (ГДР), СССР
Производство: Киностудия им. Горького, ДЕФА

Жанр: драма
Год выпуска: 1962
Продолжительность: 03:19:42 (01:35:36 + 01:44:06)

Перевод: Не требуется
Cубтитры: нет
Оригинальная аудиодорожка: русский

Режиссер: Сергей Герасимов

В ролях:
Николай Ерёменко (ст.), Тамара Макарова, Жанна Болотова, Виталий Доронин, Наталья Медведева, Сергей Никоненко, Олеся Иванова, Анастасия Филиппова (Горина), Михаил Глузский, Вадим Захарченко, Татьяна Гаврилова, Сергей Герасимов, Мария Рувель, Фридрих Вильгельм Юнге, Петер Ройссе, Вернер Тёльке...
Об актёрах подробней

Описание:
В основе сюжета — драматическая судьба советского офицера Алексея Павлова. Попав в январе 1942 года подо Мгой в плен и, оказавшись в числе перемещенных лиц, герой не сразу решился на возвращение в СССР. Поскитавшись по чужбине 17 лет, Алексей все же вернулся на родину. Случайные попутчицы, ехавшие из Москвы на юг, — врач Анна Андреевна и ее дочь Таня — стали первыми, кому Павлов поведал о своих мытарствах.

Источник: 2хDVD9 R5
Качество видео: DVDRip-AVC
Формат видео: MKV

Видео: 712->759x570 (4:3), 25 fps, H264 ~ 1634 kbps avg, 0.161 bit/pixel
Аудио: 48 kHz, Dolby Digital AC3 5.1, 448 kbps

Раздача от:
Общее
Полное имя : Lyudi.i.zveri.1962.DVDRip-AVC_[New-team]_by_AVP_Studio.mkv
Формат : Matroska
Версия формата : Version 2
Размер файла : 1,39 Гбайт
Продолжительность : 1 ч. 35 м.
Общий поток : 2084 Кбит/сек
Дата кодирования : UTC 2017-05-27 14:46:12
Программа кодирования : mkvmerge v6.1.0 ('Old Devil') built on Mar 4 2013 09:10:42
Библиотека кодирования : libebml v1.3.0 + libmatroska v1.4.0

Видео
Идентификатор : 1
Формат : AVC
Формат/Информация : Advanced Video Codec
Профиль формата : High@L4.1
Параметр CABAC формата : Да
Параметр ReFrames формата : 10 кадров
Идентификатор кодека : V_MPEG4/ISO/AVC
Продолжительность : 1 ч. 35 м.
Битрейт : 1634 Кбит/сек
Ширина : 712 пикселей
Высота : 570 пикселей
Соотношение сторон : 4:3
Режим частоты кадров : Постоянный
Частота кадров : 25,000 кадров/сек
Цветовое пространство : YUV
Субдискретизация насыщенности : 4:2:0
Битовая глубина : 8 бит
Тип развёртки : Прогрессивная
Бит/(Пиксели*Кадры) : 0.161
Размер потока : 1,06 Гбайт (77%)
Библиотека кодирования : x264 core 130 r2273 b3065e6
Настройки программы : cabac=1 / ref=10 / deblock=1:-2:-1 / analyse=0x3:0x113 / me=umh / subme=10 / psy=1 / psy_rd=1.00:0.00 / mixed_ref=1 / me_range=32 / chroma_me=1 / trellis=2 / 8x8dct=1 / cqm=0 / deadzone=21,11 / fast_pskip=1 / chroma_qp_offset=-2 / threads=6 / lookahead_threads=1 / sliced_threads=0 / nr=0 / decimate=0 / interlaced=0 / bluray_compat=0 / constrained_intra=0 / bframes=8 / b_pyramid=2 / b_adapt=2 / b_bias=0 / direct=3 / weightb=1 / open_gop=0 / weightp=2 / keyint=250 / keyint_min=25 / scenecut=40 / intra_refresh=0 / rc=2pass / mbtree=0 / bitrate=1634 / ratetol=1.0 / qcomp=0.60 / qpmin=0 / qpmax=69 / qpstep=4 / cplxblur=20.0 / qblur=0.5 / ip_ratio=1.40 / pb_ratio=1.30 / aq=1:1.00
Default : Да
Forced : Нет

Аудио
Идентификатор : 2
Формат : AC-3
Формат/Информация : Audio Coding 3
Параметр Endianness формата : Big
Идентификатор кодека : A_AC3
Продолжительность : 1 ч. 35 м.
Вид битрейта : Постоянный
Битрейт : 448 Кбит/сек
Каналы : 6 каналов
Расположение каналов : Front: L C R, Side: L R, LFE
Частота : 48,0 КГц
Частота кадров : 31,250 кадров/сек (1536 spf)
Битовая глубина : 16 бит
Метод сжатия : С потерями
Размер потока : 306 Мбайт (21%)
Default : Да
Forced : Нет



Скачать Люди и звери через торрент http://s013.radikal.ru/i322/1705/d9/ad846449f2ab.png Скачать, смотреть онлайн Люди и звери бесплантно в хорошем качестве Описание:В основе сюжета — драматическая судьба советского офицера Алексея Павлова. Попав в январе 1942 года подо Мгой в плен и, оказавшись ... 10 10 1
Info! Золотая раздача, скачанное не засчитывается.
Торрент: Зарегистрирован [2017-07-19 06:29] · скачан: 2 раз
Статус: √ проверено
Размер: 2.91 GB
Как cкачать? Как скачать Люди и звери через торрент | UTorrent

28-11-2019 20:33  

Отключить вcю реклaмy на сайте

    Дорогой пользователь! Огромная просьба, поблагодарите релизера, оцените раздачу и оставьте свои комментарий, если Вы скачали Люди и звери через торрент бесплатно!!
    Комментировать посты могут только пользователи прошедшие не сложную регистрацию
    Показать сообщения:    


    Люди и звери через торрент
    Скачать бесплатно Люди и звери
    Люди и звери скачать торрент
    Люди и звери смотреть онлайн
    Cкачать фильм Люди и звери бесплатно
    Люди и звери скачать торрент в хорошем качестве
    Люди и звери смотреть онлайн бесплатно в хорошем качестве
    Вы не можете начинать темы
    Вы не можете отвечать на сообщения
    Вы не можете редактировать свои сообщения
    Вы не можете удалять свои сообщения
    Вы не можете голосовать в опросах
    Вы не можете прикреплять файлы к сообщениям
    Вы можете скачивать файлы