1 сезон

3 сезон

iTunes

1

iTunes

DUB Netflix

iTunes

13

1 сезон

RePack

30

Deluxe

pack

Легкие деньги

ВАЖНО

ИГРА 18+

pack

RePack

MK11

RePack

jed

RePack

fifa19

RePack

RDR2

RePack

NEED FOR SPEED™ PAYBACK

4 сезон

9 сезон

Бесстыжие 9 сезон

Все сериалы

все сериалы на PB.wtf

RePack

FAR CRY 5

Anonymous, доброй ночи, мы не успеваем до 1 числа собрать деньги на оплату серверов, помогите нам пожалуйста в это трудное время. В качестве благодарности мы отключим Вам всю рекламу на сайте (укажите свой ник в строку Ваше имя)!

×
  
Magnet ссылка

Мотылёк / Moth (Гергё Элекеш, Йожеф Галлаи) [2016 г., Ужасы, WEB-DLRip, Любительский (многоголосый) GreenРай Studio] piratbit.org

Мотылёк через торрент piratbit.org

Размер: 1.37 GB | Добавлен: 4 года назад | Торрент скачан:132 раза
Скачать  

01-06-2017 03:08 Мотылёк Скачать торрент  

Мотылёк / Moth
Год выпуска: 2016
Страна: Великобритания, США, Венгрия
Жанр: Ужасы
Продолжительность: 01:21:28
Перевод: Любительский (многоголосый)GreenРай Studio
Субтитры: нет

Режиссер: Гергё Элекеш, Йожеф Галлаи

rating

В ролях: Lídia Szabó, Йожеф Галлаи, Bálint, Kata Tábori, Dániel Szabó...

Описание: Учитель и ее ученик отправляются в европейскую деревню, чтобы расследовать 22 недавних сообщениях о наблюдениях Мотмана, но то, что начинается как попытка остановить катастрофу, становится кошмарной борьбой за выживание.

Доп. информация: Присутствует реклама!

Качество: WEB-DLRip
Формат: AVI
Видео кодек: XviD
Аудио кодек: MP3
Видео: XviD, 720х400, 25.000 fps, 2070 Kbps
Аудио#1: MP3, 320 Kbs, 2 ch, 48.0 KHz



General
Complete name : H:\PROGI\Moth.2016.P.WEB-DLRip.GreenРай Studio.avi
Format : AVI
Format/Info : Audio Video Interleave
File size : 1.37 GiB
Duration : 1h 21mn
Overall bit rate : 2 400 Kbps
Writing application : VirtualDubMod 1.5.10.2 (build 2540/release)
Writing library : VirtualDubMod build 2540/release

Video
ID : 0
Format : MPEG-4 Visual
Format profile : Advanced Simple@L5
Format settings, BVOP : 2
Format settings, QPel : No
Format settings, GMC : No warppoints
Format settings, Matrix : Default (H.263)
Codec ID : XVID
Codec ID/Hint : XviD
Duration : 1h 21mn
Bit rate : 2 070 Kbps
Width : 720 pixels
Height : 400 pixels
Display aspect ratio : 16:9
Frame rate : 25.000 fps
Color space : YUV
Chroma subsampling : 4:2:0
Bit depth : 8 bits
Scan type : Progressive
Compression mode : Lossy
Bits/(Pixel*Frame) : 0.287
Stream size : 1.18 GiB (86%)
Writing library : XviD 1.2.1 (UTC 2008-12-04)

Audio
ID : 1
Format : MPEG Audio
Format version : Version 1
Format profile : Layer 3
Mode : Joint stereo
Codec ID : 55
Codec ID/Hint : MP3
Duration : 1h 21mn
Bit rate mode : Constant
Bit rate : 320 Kbps
Channel(s) : 2 channels
Sampling rate : 48.0 KHz
Compression mode : Lossy
Stream size : 186 MiB (13%)
Alignment : Aligned on interleaves
Interleave, duration : 40 ms (1.00 video frame)
Interleave, preload duration : 504 ms

piratbit.org



Скачать Мотылёк через торрент http://i92.fastpic.ru/big/2017/0601/03/95233a502134765d65ec54ea85501703.png Скачать фильм Мотылёк через торрент бесплантно в хорошем качестве Описание: Учитель и ее ученик отправляются в европейскую деревню, чтобы расследовать 22 недавних сообщениях о наблюдениях Мотмана, но то, ... 8.2 10 5
Торрент: Зарегистрирован [2017-06-01 03:08] · скачан: 132 раз
Статус: T временная
Размер: 1.37 GB
Как cкачать? Как скачать Мотылёк через торрент | UTorrent

28-11-2019 20:33  

Отключить всю рекламу на сайте

02-06-2017 18:46 Мотылёк Скачать торрент  

piratbit.org



03-06-2017 13:31 Мотылёк Скачать торрент  

Дааа.... Давненько я такой "шняги" не видывал... 0,00001 по десяти бальной системе.piratbit.org



03-06-2017 18:12 Мотылёк Скачать торрент  

vastas70 писал(а):

Дааа.... Давненько я такой "шняги" не видывал... 0,00001 по десяти бальной системе.

Всё понялpiratbit.org



    Дорогой пользователь! Огромная просьба, поблагодарите релизера, оцените раздачу и оставьте свои комментарий, если Вы скачали Мотылёк через торрент бесплатно! Внесите свою лепту в развитие PiratBit!
    Комментировать посты могут только пользователи прошедшие не сложную регистрацию
    Показать сообщения:    

    Мотылёк через торрент
    Скачать бесплатно Мотылёк
    Мотылёк скачать торрент
    Мотылёк смотреть онлайн
    Cкачать фильм Мотылёк бесплатно
    Мотылёк скачать торрент в хорошем качестве
    Мотылёк смотреть онлайн бесплатно в хорошем качестве


    Вы не можете начинать темы
    Вы не можете отвечать на сообщения
    Вы не можете редактировать свои сообщения
    Вы не можете удалять свои сообщения
    Вы не можете голосовать в опросах
    Вы не можете прикреплять файлы к сообщениям
    Вы можете скачивать файлы