1 сезон

3 сезон

iTunes

1

iTunes

DUB Netflix

iTunes

13

1 сезон

RePack

30

Deluxe

pack

Легкие деньги

ВАЖНО

ИГРА 18+

pack

RePack

MK11

RePack

jed

RePack

fifa19

RePack

RDR2

RePack

NEED FOR SPEED™ PAYBACK

4 сезон

9 сезон

Бесстыжие 9 сезон

Все сериалы

все сериалы на PB.wtf

RePack

FAR CRY 5

Anonymous, доброе утро, мы не успеваем до 1 числа собрать деньги на оплату серверов, помогите нам пожалуйста в это трудное время. В качестве благодарности мы отключим Вам всю рекламу на сайте (укажите свой ник в строку Ваше имя)!

×
  
Magnet ссылка

Синдбад и война с фуриями / Sinbad and the War of the Furies (Скотт Вилер) [2016, боевик, приключения, HDRip] MVO ["Синема УС"] piratbit.org

Синдбад и война с фуриями через торрент piratbit.org

Размер: 1.37 GB | Добавлен: 4 года назад | Торрент скачан:360 раз
Скачать  

03-06-2017 08:47 Синдбад и война с фуриями Скачать торрент  

Синдбад и война с фуриями / Sinbad and the War of the Furies
Год выпуска: 2016
Страна: США
Жанр: боевик, приключения
Продолжительность: 01:31:41
Перевод: Любительский (многоголосый) - ["Синема УС"]
Субтитры: отсутствуют

Режиссер: Скотт Вилер

rating

В ролях:

Джон Хенниган, Джэми Бернадетт, Джош Фингерхат, Уэйн «Крещендо» Уорд, Джорджия Томпсон, Terrance Richardson, Дженнифер Дороги, Хлоя Фарнворт, Ван Уайт, Ashley Doris

Описание:

Фильм расскажет о противостоянии мореплавателя и путешественника Синдбада и смертельно-опасных древних существ фурий в наши дни. Прекрасные, но безжалостные - они достаточно сильны, чтобы угрожать жизни на Земле.

Качество: HDRip
Формат: AVI
Видео кодек: XviD
Аудио кодек: AC3

Видео: 1677 kb/s, 720x400, 23.976 fps
Аудио#1: AC3, 48,0 КГц, 448 kb/s (2 ch)

скриншот   скриншот   скриншот   скриншот   скриншот  

Общее
Полное имя : D:\Sinbad.and.the.war.of.the.furies.2016.P.HDRip.14OOMB_KOSHARA.avi
Формат : AVI
Формат/Информация : Audio Video Interleave
Размер файла : 1,37 Гбайт
Продолжительность : 1 ч. 31 м.
Общий поток : 2135 Кбит/сек
Программа кодирования : VirtualDubMod 1.5.10.2 (build 2540/release)
Библиотека кодирования : VirtualDubMod build 2540/release

Видео
Идентификатор : 0
Формат : MPEG-4 Visual
Профиль формата : Advanced Simple@L5
Параметр BVOP формата : 2
Параметр QPel формата : Нет
Параметр GMC формата : Без точки перехода
Параметр матрицы формата : Default (MPEG)
Идентификатор кодека : XVID
Идентификатор кодека/Подсказка : XviD
Продолжительность : 1 ч. 31 м.
Битрейт : 1677 Кбит/сек
Ширина : 720 пикселей
Высота : 400 пикселей
Соотношение сторон : 16:9
Частота кадров : 23,976 (24000/1001) кадра/сек
Цветовое пространство : YUV
Субдискретизация насыщенности : 4:2:0
Битовая глубина : 8 бит
Тип развёртки : Прогрессивная
Метод сжатия : С потерями
Бит/(Пиксели*Кадры) : 0.243
Размер потока : 1,07 Гбайт (79%)
Библиотека кодирования : XviD 1.2.1 (UTC 2008-12-04)

Аудио
Идентификатор : 1
Формат : AC-3
Формат/Информация : Audio Coding 3
Расширение режима : CM (complete main)
Параметр Endianness формата : Big
Идентификатор кодека : 2000
Продолжительность : 1 ч. 31 м.
Вид битрейта : Постоянный
Битрейт : 448 Кбит/сек
Каналы : 2 канала
Расположение каналов : Front: L R
Частота : 48,0 КГц
Частота кадров : 31,250 кадров/сек (1536 spf)
Метод сжатия : С потерями
Размер потока : 294 Мбайт (21%)
Выравнивание : Разделение по промежуткам
Продолжительность промежутка : 42 мс. (1,00 видеокадр)
Время предзагрузки промежутка : 500 мс.

piratbit.org



Скачать Синдбад и война с фуриями через торрент http://s019.radikal.ru/i635/1706/85/2eba3c56f594.jpg Скачать фильм Синдбад и война с фуриями через торрент бесплантно в хорошем качестве Описание: Фильм расскажет о противостоянии мореплавателя и путешественника Синдбада и смертельно-опасных древних существ фурий в наши дни. ... 8.6 10 24
Торрент: Зарегистрирован [2017-06-03 08:47] · скачан: 360 раз
Статус: T временная
Размер: 1.37 GB
Как cкачать? Как скачать Синдбад и война с фуриями через торрент | UTorrent

28-11-2019 20:33  

Отключить всю рекламу на сайте

03-06-2017 12:55 Синдбад и война с фуриями Скачать торрент  

Как фильм? Стоит пробовать смотреть?piratbit.org



03-06-2017 15:18 Синдбад и война с фуриями Скачать торрент  

Конечно стоит! Вон какие постеры пиз....тые!!piratbit.org



03-06-2017 17:54 Синдбад и война с фуриями Скачать торрент  

Это фильм про то где Синдбад пришел в филиал сбербанка или почты россии, шоли?piratbit.org



03-06-2017 18:08 Синдбад и война с фуриями Скачать торрент  

Так фильм то как?piratbit.org



03-06-2017 20:17 Синдбад и война с фуриями Скачать торрент  

Что-то я не помню, чтобы Синдбад под парусом ходил с огнестрелом наперевес piratbit.org



04-06-2017 04:20 Синдбад и война с фуриями Скачать торрент  

Это ремэйк арабского Синдбадаpiratbit.org



04-06-2017 07:40 Синдбад и война с фуриями Скачать торрент  

редкое гамвно..piratbit.org



04-06-2017 18:40 Синдбад и война с фуриями Скачать торрент  

НА ПРОТЯЖЕНИИ ВСЕГО ФИЛЬМА ОРЕТ РЕКЛАМА ОБОССАНОГО КАЗИНОpiratbit.org
!-Lexx- писал(а):

Qss,
1. Читайте эту тему: Реклама в новых релизах Кино?
2. Релизер предупредил в описании о наличии рекламы.
3. Отключайте Капс, когда пишете комментарии.
Устное предупреждение.



05-06-2017 06:56 Синдбад и война с фуриями Скачать торрент  

Я скрины посмотрел и понял качать не стоит.piratbit.org



07-06-2017 18:31 Синдбад и война с фуриями Скачать торрент  

Evgeniy 23 писал(а):

Я скрины посмотрел и понял качать не стоит.

Да, сисек здесь нет... Сиськи, сочные сиськи на скринах резко повышают скачиваемость фильма и его рейтинг!!!piratbit.org



    Дорогой пользователь! Огромная просьба, поблагодарите релизера, оцените раздачу и оставьте свои комментарий, если Вы скачали Синдбад и война с фуриями через торрент бесплатно! Внесите свою лепту в развитие PiratBit!
    Комментировать посты могут только пользователи прошедшие не сложную регистрацию
    Показать сообщения:    

    Синдбад и война с фуриями через торрент
    Скачать бесплатно Синдбад и война с фуриями
    Синдбад и война с фуриями скачать торрент
    Синдбад и война с фуриями смотреть онлайн
    Cкачать фильм Синдбад и война с фуриями бесплатно
    Синдбад и война с фуриями скачать торрент в хорошем качестве
    Синдбад и война с фуриями смотреть онлайн бесплатно в хорошем качестве


    Вы не можете начинать темы
    Вы не можете отвечать на сообщения
    Вы не можете редактировать свои сообщения
    Вы не можете удалять свои сообщения
    Вы не можете голосовать в опросах
    Вы не можете прикреплять файлы к сообщениям
    Вы можете скачивать файлы