Доктор Стрэндж

Лицензия

Добыча

MVO

Дом дракона

1 сезон

Тор

Лицензия

Мэверик

Лицензия

Там, где раки поют

MVO

Властелин колец

1 сезон

Ultimate

pack

Рекомендуем

30

Repack

ВАЖНО

ВАЖНО

Ghostwire

RePack

jed

RePack

nioh2

RePack

RDR2

RePack

NEED FOR SPEED™ PAYBACK

RePack

скачать торрент

Кинопоиск HD

Острые козырьки 6 сезон

6 сезон

FAR CRY 6

RePack

скачать торрент

Лицензия

скачать торрент

MVO

1

1 сезон

скачать торрент

1 сезон

скачать торрент

Лицензия

  

Поединок (Владимир Петров) [1957, СССР, драма, DVDRip от AVP Studio]

Поединок через торрент piratbit.org

Размер: 745 MB | Добавлен: 5 лет 4 мес. назад | Торрент скачан:3 раза
Смотреть онлайн | Скачать   

06-06-2017 08:50 Поединок Скачать торрент  

Поединок
Страна: СССР
Производство: Мосфильм

Жанр: драма
Год выпуска: 1957
Продолжительность: 01:38:30

Перевод: Не требуется
Cубтитры: нет
Оригинальная аудиодорожка: русский

Режиссер: Владимир Петров

В ролях:
Николай Комиссаров, Андрей Попов, Юрий Пузырёв, Михаил Названов, Ирина Скобцева, Лидия Сухаревская, Сергей Блинников, Николай Боголюбов, Владимир Белокуров, Евгений Евстигнеев, Александр Гумбург, Ной Авалиани, Павел Павленко, Леонид Пархоменко, Александр Лебедев, Раднэр Муратов, Лев Перфилов...
Об актёрах подробней

Описание:
Мелодрама по одноименной повести А. И. Куприна.
Конец 19-го века. Полк, расквартированный в небольшом городишке, скучает, пьянствует, томится в бездуховности. Подпоручик Ромашов влюбляется в жену капитана Шурочку. Общество судачит на эту тему. Возникает ссора между капитаном и подпоручиком. Шурочка уговаривает Ромашова провести имитацию дуэли, чтобы спасти “честь мужа”. Поединок заканчивается трагически - Николаев смертельно ранит Ромашова.

Источник: DVD9 R5
Качество видео: DVDRip
Формат видео: AVI

Видео: 576x432 (4:3), 25 fps, XviD ~ 919 kbps avg, 0.148 bit/pixel
Аудио: 48 kHz, MP3 2.0, 128 kbps

Раздача от:
Общее
Полное имя : Poedinok.1957.DVDRip-745_[New-team]_by_AVP_Studio.avi
Формат : AVI
Формат/Информация : Audio Video Interleave
Размер файла : 745 Мбайт
Продолжительность : 1 ч. 38 м.
Общий поток : 1057 Кбит/сек
Программа кодирования : VirtualDubMod 1.5.10.3 | www.virtualdub-fr.org || (build 2550/release)
Библиотека кодирования : VirtualDubMod build 2550/release

Видео
Идентификатор : 0
Формат : MPEG-4 Visual
Профиль формата : Advanced Simple@L5
Параметр BVOP формата : 1
Параметр QPel формата : Нет
Параметр GMC формата : Без точки перехода
Параметр матрицы формата : Выборочная
Идентификатор кодека : XVID
Идентификатор кодека/Подсказка : XviD
Продолжительность : 1 ч. 38 м.
Битрейт : 919 Кбит/сек
Ширина : 576 пикселей
Высота : 432 пикселя
Соотношение сторон : 4:3
Частота кадров : 25,000 кадров/сек
Цветовое пространство : YUV
Субдискретизация насыщенности : 4:2:0
Битовая глубина : 8 бит
Тип развёртки : Прогрессивная
Метод сжатия : С потерями
Бит/(Пиксели*Кадры) : 0.148
Размер потока : 648 Мбайт (87%)
Библиотека кодирования : XviD 73

Аудио
Идентификатор : 1
Формат : MPEG Audio
Версия формата : Version 1
Профиль формата : Layer 3
Идентификатор кодека : 55
Идентификатор кодека/Подсказка : MP3
Продолжительность : 1 ч. 38 м.
Вид битрейта : Постоянный
Битрейт : 128 Кбит/сек
Каналы : 2 канала
Частота : 48,0 КГц
Метод сжатия : С потерями
Размер потока : 90,3 Мбайт (12%)
Выравнивание : Соединение по промежуткам
Продолжительность промежутка : 40 мс. (1,00 видеокадр)
Время предзагрузки промежутка : 504 мс.
Библиотека кодирования : LAME3.99r
Настройки программы : -m s -V 4 -q 2 -lowpass 17 -b 128



Скачать Поединок через торрент http://s018.radikal.ru/i524/1706/bf/cdaa71c192ad.png Скачать, смотреть онлайн Поединок бесплантно в хорошем качестве Описание:Мелодрама по одноименной повести А. И. Куприна.Конец 19-го века. Полк, расквартированный в небольшом городишке, скучает, ... 10 10 1
Info! Золотая раздача, скачанное не засчитывается.
Торрент: Зарегистрирован [2017-06-06 08:50] · скачан: 3 раз
Статус: √ проверено
Размер: 745 MB
Как cкачать? Как скачать Поединок через торрент | UTorrent

% Раздел Тема Автор DL S | L
Кино СССР [ 1.46 GB ] Поединок | | DVDRip-AVC от AVP Studio AVP Studio Скачать
1 | 0
Кино СССР [ 1.46 GB ] Поединок | | DVDRip от AVP Studio AVP Studio Скачать
1 | 0

28-11-2019 20:33  


Отключить вcю реклaмy на сайте, в т.ч. и в плеере онлайн просмотра!

    Дорогой пользователь! Огромная просьба, поблагодарите релизера, оцените раздачу и оставьте свои комментарий, если Вы скачали Поединок через торрент бесплатно!!
    Комментировать посты могут только пользователи прошедшие не сложную регистрацию
    Показать сообщения:    


    Поединок через торрент
    Скачать бесплатно Поединок
    Поединок скачать торрент
    Поединок смотреть онлайн
    Cкачать фильм Поединок бесплатно
    Поединок скачать торрент в хорошем качестве
    Поединок смотреть онлайн бесплатно в хорошем качестве
    Вы не можете начинать темы
    Вы не можете отвечать на сообщения
    Вы не можете редактировать свои сообщения
    Вы не можете удалять свои сообщения
    Вы не можете голосовать в опросах
    Вы не можете прикреплять файлы к сообщениям
    Вы можете скачивать файлы