1 сезон

3 сезон

iTunes

1

iTunes

DUB Netflix

iTunes

13

1 сезон

RePack

30

Deluxe

pack

Легкие деньги

ВАЖНО

ИГРА 18+

pack

RePack

MK11

RePack

jed

RePack

fifa19

RePack

RDR2

RePack

NEED FOR SPEED™ PAYBACK

4 сезон

9 сезон

Бесстыжие 9 сезон

Все сериалы

все сериалы на PB.wtf

RePack

FAR CRY 5

Anonymous, добрый день, мы не успеваем до 1 числа собрать деньги на оплату серверов, помогите нам пожалуйста в это трудное время. В качестве благодарности мы отключим Вам всю рекламу на сайте (укажите свой ник в строку Ваше имя)!

×
  
Magnet ссылка

Лекарство от здоровья / A Cure for Wellness (Гор Вербински) [2016, ужасы, фантастика, фэнтези, BDRip-AVC] Dub [Лицензия] - ExKinoRay piratbit.org

Лекарство от здоровья через торрент piratbit.org

Размер: 2.87 GB | Добавлен: 4 года назад | Торрент скачан:2488 раз
Скачать  

08-06-2017 03:59 Лекарство от здоровья Скачать торрент  

Информация о фильме
Название: Лекарство от здоровья
Оригинальное название: A Cure for Wellness
Год выпуска: 2016
Жанр: Триллер, детектив
Страна: Германия, США
Студия: Blind Wink Productions, New Regency Productions
Продолжительность: 02:26:33
Перевод: Дублированный | Лицензия
Субтитры: Русские (форс, полные), английские
Режиссер: Гор Вербински
В ролях: Дэйн ДеХаан, Джейсон Айзекс, Миа Гот, Иво Нанди, Адриан Шиллер, Селия Имри, Гарри Гронер, Томас Норстрем, Ашок Манданна, Магнус Креппер

Описание: Молодой амбициозный сотрудник отправляется в затерянный в швейцарских Альпах оздоровительный центр, чтобы вернуть оттуда руководителя своей компании. Но по прибытии он понимает, что чудодейственные процедуры спа-салона вовсе не те, чем кажутся. В то время как парень начинает распутывать страшные тайны этого места, его здравый ум проходит настоящую проверку на прочность. Похоже, теперь он страдает той же странной болезнью, по причине которой здесь остаются другие гости центра, желающие получить свою дозу лекарства.


rating

Файл
Формат: MKV
Качество: BDRip-AVC
Видео: AVC, 1024х576 (16:9), 1910 kbps, 23,976 fps, 0,135 bpp
Аудио 1: 48 kHz, AC3, 5.1, 448 Kbps | RUS |
Аудио 2: 48 kHz, AC3, 5.1, 448 Kbps | ENG |

Навигация по главам: есть
General
Unique ID : 182416596854445053026006497883050512799 (0x893C289B8D0A8F6FBDE18D3C2F4C919F)
Complete name : D:\A.Cure.for.Wellness.2016.D.BDRip.AVC.ExKinoRay.mkv
Format : Matroska
Format version : Version 2
File size : 2.87 GiB
Duration : 2 h 26 min
Overall bit rate : 2 808 kb/s
Movie name : A Cure for Wellness (2016) from ExKinoRay
Encoded date : UTC 2017-06-08 03:35:21
Writing application : mkvmerge v5.8.0 ('No Sleep / Pillow') built on Sep 2 2012 15:37:04
Writing library : libebml v1.2.3 + libmatroska v1.3.0

Video
ID : 1
Format : AVC
Format/Info : Advanced Video Codec
Format profile : High@L4.1
Format settings, CABAC : Yes
Format settings, ReFrames : 12 frames
Codec ID : V_MPEG4/ISO/AVC
Duration : 2 h 26 min
Bit rate : 1 910 kb/s
Width : 1 024 pixels
Height : 576 pixels
Display aspect ratio : 16:9
Frame rate mode : Constant
Frame rate : 23.976 (23976/1000) FPS
Color space : YUV
Chroma subsampling : 4:2:0
Bit depth : 8 bits
Scan type : Progressive
Bits/(Pixel*Frame) : 0.135
Stream size : 1.90 GiB (66%)
Title : Enigma
Writing library : x264 core 144 r2525 40bb568
Encoding settings : cabac=1 / ref=12 / deblock=1:-3:-3 / analyse=0x3:0x113 / me=umh / subme=10 / psy=1 / psy_rd=1.00:0.05 / mixed_ref=1 / me_range=32 / chroma_me=1 / trellis=2 / 8x8dct=1 / cqm=0 / deadzone=21,11 / fast_pskip=1 / chroma_qp_offset=-3 / threads=12 / lookahead_threads=2 / sliced_threads=0 / nr=0 / decimate=0 / interlaced=0 / bluray_compat=0 / constrained_intra=0 / bframes=9 / b_pyramid=2 / b_adapt=2 / b_bias=0 / direct=3 / weightb=1 / open_gop=0 / weightp=2 / keyint=240 / keyint_min=23 / scenecut=40 / intra_refresh=0 / rc=2pass / mbtree=0 / bitrate=1910 / ratetol=1.0 / qcomp=0.62 / qpmin=0 / qpmax=51 / qpstep=4 / cplxblur=20.0 / qblur=0.5 / ip_ratio=1.40 / pb_ratio=1.30 / aq=3:0.80
Language : English
Default : Yes
Forced : No
Color range : Limited
Color primaries : BT.709
Transfer characteristics : BT.709
Matrix coefficients : BT.709

Audio #1
ID : 2
Format : AC-3
Format/Info : Audio Coding 3
Mode extension : CM (complete main)
Format settings, Endianness : Big
Codec ID : A_AC3
Duration : 2 h 26 min
Bit rate mode : Constant
Bit rate : 448 kb/s
Channel(s) : 6 channels
Channel positions : Front: L C R, Side: L R, LFE
Sampling rate : 48.0 kHz
Frame rate : 31.250 FPS (1536 spf)
Compression mode : Lossy
Stream size : 470 MiB (16%)
Title : Dub (Blu-ray EUR)
Language : Russian
Default : Yes
Forced : No

Audio #2
ID : 3
Format : AC-3
Format/Info : Audio Coding 3
Mode extension : CM (complete main)
Format settings, Endianness : Big
Codec ID : A_AC3
Duration : 2 h 26 min
Bit rate mode : Constant
Bit rate : 448 kb/s
Channel(s) : 6 channels
Channel positions : Front: L C R, Side: L R, LFE
Sampling rate : 48.0 kHz
Frame rate : 31.250 FPS (1536 spf)
Compression mode : Lossy
Stream size : 470 MiB (16%)
Language : English
Default : No
Forced : No

Text #1
ID : 4
Format : UTF-8
Codec ID : S_TEXT/UTF8
Codec ID/Info : UTF-8 Plain Text
Title : Forced
Language : Russian
Default : Yes
Forced : No

Text #2
ID : 5
Format : UTF-8
Codec ID : S_TEXT/UTF8
Codec ID/Info : UTF-8 Plain Text
Title : Full
Language : Russian
Default : No
Forced : No

Text #3
ID : 6
Format : UTF-8
Codec ID : S_TEXT/UTF8
Codec ID/Info : UTF-8 Plain Text
Title : SDH
Language : English
Default : No
Forced : No

Menu
00:00:00.000 : en: Chapter 1
00:03:37.092 : en: Chapter 2
00:09:18.349 : en: Chapter 3
00:13:22.343 : en: Chapter 4
00:16:55.681 : en: Chapter 5
00:22:49.910 : en: Chapter 6
00:27:42.035 : en: Chapter 7
00:32:01.878 : en: Chapter 8
00:38:23.843 : en: Chapter 9
00:44:51.397 : en: Chapter 10
00:51:22.162 : en: Chapter 11
00:56:50.782 : en: Chapter 12
01:01:31.062 : en: Chapter 13
01:08:08.293 : en: Chapter 14
01:13:12.221 : en: Chapter 15
01:17:02.284 : en: Chapter 16
01:21:08.447 : en: Chapter 17
01:25:17.195 : en: Chapter 18
01:29:20.355 : en: Chapter 19
01:34:59.277 : en: Chapter 20
01:40:19.513 : en: Chapter 21
01:43:49.181 : en: Chapter 22
01:47:46.794 : en: Chapter 23
01:52:30.661 : en: Chapter 24
01:56:30.775 : en: Chapter 25
02:04:22.121 : en: Chapter 26
02:09:17.458 : en: Chapter 27
02:19:59.057 : en: Chapter 28
Релиз от:

Автор релиза: piratbit.org



Скачать Лекарство от здоровья через торрент http://s018.radikal.ru/i509/1705/d2/0b75b9a9fbee.jpg Скачать фильм Лекарство от здоровья через торрент бесплантно в хорошем качестве Описание: Молодой амбициозный сотрудник отправляется в затерянный в швейцарских Альпах оздоровительный центр, чтобы вернуть оттуда ... 9.9 10 19
Info! Золотая раздача, скачанное не засчитывается.
Торрент: Зарегистрирован [2017-06-08 03:59] · скачан: 2 488 раз
Статус: √ проверено
Размер: 2.87 GB
Как cкачать? Как скачать Лекарство от здоровья через торрент | UTorrent

28-11-2019 20:33  

Отключить всю рекламу на сайте

    Дорогой пользователь! Огромная просьба, поблагодарите релизера, оцените раздачу и оставьте свои комментарий, если Вы скачали Лекарство от здоровья через торрент бесплатно! Внесите свою лепту в развитие PiratBit!
    Комментировать посты могут только пользователи прошедшие не сложную регистрацию
    Показать сообщения:    

    Лекарство от здоровья через торрент
    Скачать бесплатно Лекарство от здоровья
    Лекарство от здоровья скачать торрент
    Лекарство от здоровья смотреть онлайн
    Cкачать фильм Лекарство от здоровья бесплатно
    Лекарство от здоровья скачать торрент в хорошем качестве
    Лекарство от здоровья смотреть онлайн бесплатно в хорошем качестве


    Вы не можете начинать темы
    Вы не можете отвечать на сообщения
    Вы не можете редактировать свои сообщения
    Вы не можете удалять свои сообщения
    Вы не можете голосовать в опросах
    Вы не можете прикреплять файлы к сообщениям
    Вы можете скачивать файлы