Доктор Стрэндж

Лицензия

Добыча

MVO

Дом дракона

1 сезон

Тор

Лицензия

Мэверик

Лицензия

Там, где раки поют

MVO

Властелин колец

1 сезон

Ultimate

pack

Рекомендуем

30

Repack

ВАЖНО

ВАЖНО

Ghostwire

RePack

jed

RePack

nioh2

RePack

RDR2

RePack

NEED FOR SPEED™ PAYBACK

RePack

скачать торрент

Кинопоиск HD

Острые козырьки 6 сезон

6 сезон

FAR CRY 6

RePack

скачать торрент

Лицензия

скачать торрент

MVO

1

1 сезон

скачать торрент

1 сезон

скачать торрент

Лицензия

  

Повесть о первой любви (Василий Левин) [1957, СССР, драма, мелодрама, DVDRip от AVP Studio]

Повесть о первой любви через торрент piratbit.org

Размер: 1.09 GB | Добавлен: 5 лет 3 мес. назад | Торрент скачан:2 раза
Смотреть онлайн Повесть о первой любви | Скачать   

11-06-2017 08:17 Повесть о первой любви Скачать торрент  

Повесть о первой любви
Страна: СССР
Производство: Одесская киностудия

Жанр: драма, мелодрама
Год выпуска: 1957
Продолжительность: 01:24:32

Перевод: Не требуется
Cубтитры: нет
Оригинальная аудиодорожка: русский

Режиссер: Василий Левин

В ролях:
Джемма Осмоловская, Кирилл Столяров, Владимир Земляникин, Сергей Столяров, Екатерина Калинина (II), Александра Панова, Мария Яроцкая, Алексей Бахарь, Пётр Щербаков, Гертруда Двойникова, Валерия Бескова, Е. Бончковская...
Об актёрах подробней

Описание:
По одноименной повести Николая Атарова.
После смерти матери старшеклассница Оля, оставленная на попечение полуграмотной тетки, решила бросить спортивную школу и поступить на работу. Но Митя не оставил свою подругу в беде и привел ее к себе. Чуткие и тактичные родители поддержали сына. Но мещане видят в этом что-то аморальное и распускают грязные слухи...

Источник: DVD5 R5
Качество видео: DVDRip
Формат видео: AVI

Видео: 688x512 (4:3), 25 fps, XviD ~ 1641 kbps avg, 0.186 bit/pixel
Аудио: 48 kHz, Dolby Digital AC3 2.0, 192 kbps

Раздача от:
Общее
Полное имя : Povest.o.pervoy.lyubvi.1957.DVDRip_[New-team]_by_AVP_Studio.avi
Формат : AVI
Формат/Информация : Audio Video Interleave
Размер файла : 1,09 Гбайт
Продолжительность : 1 ч. 24 м.
Общий поток : 1843 Кбит/сек
Программа кодирования : VirtualDubMod 1.5.10.3 | www.virtualdub-fr.org || (build 2550/release)
Библиотека кодирования : VirtualDubMod build 2550/release

Видео
Идентификатор : 0
Формат : MPEG-4 Visual
Профиль формата : Advanced Simple@L5
Параметр BVOP формата : 1
Параметр QPel формата : Нет
Параметр GMC формата : Без точки перехода
Параметр матрицы формата : Выборочная
Идентификатор кодека : XVID
Идентификатор кодека/Подсказка : XviD
Продолжительность : 1 ч. 24 м.
Битрейт : 1641 Кбит/сек
Ширина : 688 пикселей
Высота : 512 пикселей
Соотношение сторон : 4:3
Частота кадров : 25,000 кадров/сек
Цветовое пространство : YUV
Субдискретизация насыщенности : 4:2:0
Битовая глубина : 8 бит
Тип развёртки : Прогрессивная
Метод сжатия : С потерями
Бит/(Пиксели*Кадры) : 0.186
Размер потока : 992 Мбайт (89%)
Библиотека кодирования : XviD 73

Аудио
Идентификатор : 1
Формат : AC-3
Формат/Информация : Audio Coding 3
Параметр Endianness формата : Big
Идентификатор кодека : 2000
Продолжительность : 1 ч. 24 м.
Вид битрейта : Постоянный
Битрейт : 192 Кбит/сек
Каналы : 2 канала
Расположение каналов : Front: L R
Частота : 48,0 КГц
Частота кадров : 31,250 кадров/сек (1536 spf)
Битовая глубина : 16 бит
Метод сжатия : С потерями
Размер потока : 116 Мбайт (10%)
Выравнивание : Разделение по промежуткам
Продолжительность промежутка : 40 мс. (1,00 видеокадр)
Время предзагрузки промежутка : 500 мс



Скачать Повесть о первой любви через торрент http://s001.radikal.ru/i193/1706/2e/36aed36d6b2b.png Скачать, смотреть онлайн Повесть о первой любви бесплантно в хорошем качестве Описание:По одноименной повести Николая Атарова.После смерти матери старшеклассница Оля, оставленная на попечение полуграмотной тетки, ... 10 10 1
Info! Золотая раздача, скачанное не засчитывается.
Торрент: Зарегистрирован [2017-06-11 08:17] · скачан: 2 раз
Статус: √ проверено
Размер: 1.09 GB
Как cкачать? Как скачать Повесть о первой любви через торрент | UTorrent

% Раздел Тема Автор DL S | L
Кино СССР [ 1.09 GB ] Повесть о первой любви | | DVDRip-AVC от AVP Studio AVP Studio Скачать
1 | 0
Кино СССР [ 745 MB ] Повесть о первой любви | | DVDRip от AVP Studio AVP Studio Скачать
1 | 0

28-11-2019 20:33  

Отключить вcю реклaмy на сайте

    Дорогой пользователь! Огромная просьба, поблагодарите релизера, оцените раздачу и оставьте свои комментарий, если Вы скачали Повесть о первой любви через торрент бесплатно!!
    Комментировать посты могут только пользователи прошедшие не сложную регистрацию
    Показать сообщения:    


    Повесть о первой любви через торрент
    Скачать бесплатно Повесть о первой любви
    Повесть о первой любви скачать торрент
    Повесть о первой любви смотреть онлайн
    Cкачать фильм Повесть о первой любви бесплатно
    Повесть о первой любви скачать торрент в хорошем качестве
    Повесть о первой любви смотреть онлайн бесплатно в хорошем качестве
    Вы не можете начинать темы
    Вы не можете отвечать на сообщения
    Вы не можете редактировать свои сообщения
    Вы не можете удалять свои сообщения
    Вы не можете голосовать в опросах
    Вы не можете прикреплять файлы к сообщениям
    Вы можете скачивать файлы