Ссылка на приватное зеркало нашего сайта всего за 1$. Внимание количество ограничено!!!

2 сезон

iTunes

iTunes

1

iTunes

iTunes

iTunes

WEBRip

iTunes

30
pack

Новость дня

ВАЖНО

!!Акция!!

Alien_RageХит недели

RePack

Horizon Zero Dawn

ИГРА 18+

pack

RePack

jed

!!Акция!!

Alien_Rage

RePack

fifa19

RePack

Assassins Creed: Odyssey

RePack

NEED FOR SPEED™ PAYBACK

4 сезон

9 сезон

Бесстыжие 9 сезон

Все сериалы

все сериалы на PB.wtf

RePack

FAR CRY 5
  

Рождение нации / The Birth of a Nation (Нэйт Паркер) [2016, драма, биография, история, BDRip-AVC от R.G. Resident] MVO (Rus) + DUB (Ukr) [Лицензия] piratbit.org

Рождение нации через торрент piratbit.org

Размер: 2.56 GB | Добавлен: 3 года 3 мес. назад | Торрент скачан:113 раз
Скачать  

14-06-2017 11:43 Рождение нации Скачать торрент  

Рождение нации / The Birth of a Nation Год выпуска: 2016
Страна: США
Жанр: Драма, биография, история
Продолжительность: 01:59:53
Перевод: Профессиональный многоголосый - [Лицензия Blu-ray EUR]
Субтитры: Русские (Full), Украинские (Full), Английские (Forced, Full, SDH)

Режиссер: Нэйт Паркер

В ролях:

Нэйт Паркер, Арми Хаммер, Пенелопа Энн Миллер, Джеки Эрл Хейли, Марк Бун Джуниор, Колман Доминго, Онжаню Эллис, Дуайт Генри, Эйджа Наоми Кинг, Эстер Скотт

Описание:

Историко-драматический байопик о чернокожем рабе-мятежнике Нэте Тёрнере. Веря в свою богоизбранность, Тёрнер воспринимает затмение как знак свыше: черная ладонь накрывает солнце. Под его предводительством вспыхивает восстание, потрясшее рабовладельческую Америку.

rating

Качество: BDRip-AVC
Формат: MKV
Видео кодек: H.264
Аудио кодек: AC3

Видео: 1024x426 (2.40:1), 23.976 fps, x264 ~1708 kbps avg, 0.163 bit/pixel
Аудио#1: 48 kHz, AC3 Dolby Digital, 3/2 (L,C,R,l,r) + LFE ch, ~448.00 kbps avg | RUS (MVO)
Аудио#2: 48 kHz, AC3 Dolby Digital, 3/2 (L,C,R,l,r) + LFE ch, ~448.00 kbps avg | UKR (DUB)
Аудио#3: 48 kHz, AC3 Dolby Digital, 3/2 (L,C,R,l,r) + LFE ch, ~448.00 kbps avg | ENG (Original)
Навигация по главам: есть

Общее
Уникальный идентификатор : 211106940406396432044929955672577700558 (0x9ED1B7C1B8068280A92A472E400A72CE)
Полное имя : E:\The.Birth.of.a.Nation.2016.BDRip.AVC.R.G.Resident.mkv
Формат : Matroska
Версия формата : Version 4 / Version 2
Размер файла : 2,56 Гбайт
Продолжительность : 1 ч. 59 м.
Общий поток : 3053 Кбит/сек
Название фильма : Рождение нации (2016) BDRip-AVC от R.G. Resident
Дата кодирования : UTC 2017-06-14 12:17:57
Программа кодирования : mkvmerge v12.0.0 ('Trust / Lust') 64bit
Библиотека кодирования : libebml v1.3.4 + libmatroska v1.4.5
Обложка : Yes
Attachments : cover.jpg

Видео
Идентификатор : 1
Формат : AVC
Формат/Информация : Advanced Video Codec
Профиль формата : High@L4.1
Параметр CABAC формата : Да
Параметр ReFrames формата : 13 кадров
Идентификатор кодека : V_MPEG4/ISO/AVC
Продолжительность : 1 ч. 59 м.
Битрейт : 1708 Кбит/сек
Ширина : 1024 пикселя
Высота : 426 пикселей
Соотношение сторон : 2,40:1
Режим частоты кадров : Постоянный
Частота кадров : 23,976 (24000/1001) кадра/сек
Цветовое пространство : YUV
Субдискретизация насыщенности : 4:2:0
Битовая глубина : 8 бит
Тип развёртки : Прогрессивная
Бит/(Пиксели*Кадры) : 0.163
Размер потока : 1,43 Гбайт (56%)
Заголовок : -Lexx-
Библиотека кодирования : x264 core 150 r2833kMod df79067
Настройки программы : cabac=1 / ref=13 / deblock=1:-3:-3 / analyse=0x3:0x113 / me=umh / subme=11 / psy=1 / fade_compensate=0.00 / psy_rd=1.00:0.15 / mixed_ref=1 / me_range=48 / chroma_me=1 / trellis=2 / 8x8dct=1 / cqm=0 / deadzone=21,11 / fast_pskip=0 / chroma_qp_offset=-3 / threads=12 / lookahead_threads=3 / sliced_threads=0 / nr=0 / decimate=0 / interlaced=0 / bluray_compat=0 / constrained_intra=0 / bframes=15 / b_pyramid=2 / b_adapt=2 / b_bias=0 / direct=3 / weightb=1 / open_gop=0 / weightp=2 / keyint=240 / keyint_min=23 / scenecut=40 / intra_refresh=0 / rc_lookahead=40 / rc=2pass / mbtree=0 / bitrate=1708 / ratetol=1.0 / qcomp=0.60 / qpmin=0 / qpmax=69 / qpstep=4 / cplxblur=20.0 / qblur=0.5 / vbv_maxrate=50000 / vbv_bufsize=62500 / nal_hrd=none / filler=0 / ip_ratio=1.40 / pb_ratio=1.30 / aq=1:1.00
Язык : English
Default : Да
Forced : Нет
Цветовой диапазон : Limited
Основные цвета : BT.709
Характеристики трансфера : BT.709
Коэффициенты матрицы : BT.709

Аудио #1
Идентификатор : 2
Формат : AC-3
Формат/Информация : Audio Coding 3
Параметр Endianness формата : Big
Идентификатор кодека : A_AC3
Продолжительность : 1 ч. 59 м.
Вид битрейта : Постоянный
Битрейт : 448 Кбит/сек
Каналы : 6 каналов
Расположение каналов : Front: L C R, Side: L R, LFE
Частота : 48,0 КГц
Частота кадров : 31,250 кадров/сек (1536 spf)
Битовая глубина : 16 бит
Метод сжатия : С потерями
Размер потока : 384 Мбайт (15%)
Заголовок : MVO (BD EUR)
Язык : Russian
ServiceKind/String : Complete Main
Default : Да
Forced : Нет

Аудио #2
Идентификатор : 3
Формат : AC-3
Формат/Информация : Audio Coding 3
Параметр Endianness формата : Big
Идентификатор кодека : A_AC3
Продолжительность : 1 ч. 59 м.
Вид битрейта : Постоянный
Битрейт : 448 Кбит/сек
Каналы : 6 каналов
Расположение каналов : Front: L C R, Side: L R, LFE
Частота : 48,0 КГц
Частота кадров : 31,250 кадров/сек (1536 spf)
Битовая глубина : 16 бит
Метод сжатия : С потерями
Размер потока : 384 Мбайт (15%)
Заголовок : Dub (BD EUR)
Язык : Ukrainian
ServiceKind/String : Complete Main
Default : Нет
Forced : Нет

Аудио #3
Идентификатор : 4
Формат : AC-3
Формат/Информация : Audio Coding 3
Параметр Endianness формата : Big
Идентификатор кодека : A_AC3
Продолжительность : 1 ч. 59 м.
Вид битрейта : Постоянный
Битрейт : 448 Кбит/сек
Каналы : 6 каналов
Расположение каналов : Front: L C R, Side: L R, LFE
Частота : 48,0 КГц
Частота кадров : 31,250 кадров/сек (1536 spf)
Битовая глубина : 16 бит
Метод сжатия : С потерями
Размер потока : 384 Мбайт (15%)
Заголовок : Original
Язык : English
ServiceKind/String : Complete Main
Default : Нет
Forced : Нет

Текст #1
Идентификатор : 5
Формат : UTF-8
Идентификатор кодека : S_TEXT/UTF8
Идентификатор кодека/Информация : UTF-8 Plain Text
Продолжительность : 1 ч. 58 м.
Битрейт : 47 бит/сек
ElementCount : 937
Размер потока : 41,6 Кбайт (0%)
Заголовок : Full
Язык : Russian
Default : Нет
Forced : Нет

Текст #2
Идентификатор : 6
Формат : UTF-8
Идентификатор кодека : S_TEXT/UTF8
Идентификатор кодека/Информация : UTF-8 Plain Text
Продолжительность : 1 ч. 58 м.
Битрейт : 55 бит/сек
ElementCount : 949
Размер потока : 48,0 Кбайт (0%)
Заголовок : Full
Язык : Ukrainian
Default : Нет
Forced : Нет

Текст #3
Идентификатор : 7
Формат : UTF-8
Идентификатор кодека : S_TEXT/UTF8
Идентификатор кодека/Информация : UTF-8 Plain Text
Продолжительность : 1 м. 7 с.
Битрейт : 51 бит/сек
ElementCount : 16
Размер потока : 431 байт (0%)
Заголовок : Forced
Язык : English
Default : Нет
Forced : Нет

Текст #4
Идентификатор : 8
Формат : UTF-8
Идентификатор кодека : S_TEXT/UTF8
Идентификатор кодека/Информация : UTF-8 Plain Text
Продолжительность : 1 ч. 46 м.
Битрейт : 39 бит/сек
ElementCount : 920
Размер потока : 30,7 Кбайт (0%)
Заголовок : Full
Язык : English
Default : Нет
Forced : Нет

Текст #5
Идентификатор : 9
Формат : UTF-8
Идентификатор кодека : S_TEXT/UTF8
Идентификатор кодека/Информация : UTF-8 Plain Text
Продолжительность : 1 ч. 50 м.
Битрейт : 42 бит/сек
ElementCount : 1303
Размер потока : 34,0 Кбайт (0%)
Заголовок : SDH
Язык : English
Default : Нет
Forced : Нет

Меню
00:00:00.000 : en:00:00:00.000
00:04:18.758 : en:00:04:18.758
00:07:45.465 : en:00:07:45.465
00:10:05.063 : en:00:10:05.063
00:14:37.877 : en:00:14:37.877
00:17:42.812 : en:00:17:42.812
00:23:06.927 : en:00:23:06.927
00:28:35.172 : en:00:28:35.172
00:32:13.974 : en:00:32:13.974
00:37:09.227 : en:00:37:09.227
00:39:50.430 : en:00:39:50.430
00:42:53.571 : en:00:42:53.571
00:46:46.387 : en:00:46:46.387
00:51:11.151 : en:00:51:11.151
00:54:41.153 : en:00:54:41.153
00:59:01.413 : en:00:59:01.413
01:03:21.715 : en:01:03:21.715
01:08:42.201 : en:01:08:42.201
01:13:05.423 : en:01:13:05.423
01:17:02.910 : en:01:17:02.910
01:22:13.095 : en:01:22:13.095
01:26:56.920 : en:01:26:56.920
01:30:54.741 : en:01:30:54.741
01:37:59.040 : en:01:37:59.040
01:41:42.972 : en:01:41:42.972
01:43:57.648 : en:01:43:57.648
01:47:25.939 : en:01:47:25.939
01:50:41.051 : en:01:50:41.051
piratbit.org



Скачать Рождение нации через торрент http://i77.fastpic.ru/big/2016/0417/a7/808a646271c761f7c7d87df3d366b3a7.png Скачать фильм Рождение нации через торрент бесплантно в хорошем качестве Описание: Историко-драматический байопик о чернокожем рабе-мятежнике Нэте Тёрнере. Веря в свою богоизбранность, Тёрнер воспринимает ... 8 10 6
Info! Золотая раздача, скачанное не засчитывается.
Торрент: Зарегистрирован [2017-06-14 12:40] · скачан: 113 раз
Статус: √ проверено
Размер: 2.56 GB
Как cкачать? Как скачать Рождение нации через торрент | qTorrent

% Раздел Тема Автор DL S | L
Фильмы (Blu-ray, BD-Remux, HDDVD) [ 39.33 GB ] Рождение Нации / The Birth of a Nation [2016 биография история Blu-ray 1080p] MVO [] bober100 Скачать
1 | 0
Фильмы 2016 [DVDrip, WEB-DLRip, HDrip] (DUB, MVO) [ 2.51 GB ] Рождение нации / The Birth of a Nation [2016 биография история BDRip-AVC] MVO+DUB [] bober100 Скачать
1 | 0
Фильмы 2016 [DVDrip, WEB-DLRip, HDrip] (DUB, MVO) [ 2.18 GB ] Рождение нации / The Birth of a Nation [2016 биография история BDRip] MVO [] bober100 Скачать
1 | 0
Фильмы 2016 [DVDrip, WEB-DLRip, HDrip] (DUB, MVO) [ 1.46 GB ] Рождение нации / The Birth of a Nation [2016 биография история BDRip] MVO [] bober100 Скачать
1 | 0
Фильмы 2016 [DVDrip, WEB-DLRip, HDrip] (DUB, MVO) [ 2.13 GB ] Рождение нации / The Birth of a Nation [2016 биография история BDRip] [MVO] killermax2013 Скачать
1 | 0

28-11-2019 20:33  

Отключить всю рекламу на сайте

14-06-2017 15:38 Рождение нации Скачать торрент  

НОРМ?piratbit.org



25-07-2020 17:04 Рождение нации Скачать торрент  

piratbit.org



    Дорогой пользователь! Огромная просьба, поблагодарите релизера, оцените раздачу и оставьте свои комментарий, если Вы скачали Рождение нации через торрент бесплатно! Внесите свою лепту в развитие PiratBit!
    Комментировать посты могут только пользователи прошедшие не сложную регистрацию
    Показать сообщения:    

    Рождение нации через торрент
    Скачать бесплатно Рождение нации
    Рождение нации скачать торрент
    Рождение нации смотреть онлайн
    Cкачать фильм Рождение нации бесплатно
    Рождение нации скачать торрент в хорошем качестве
    Рождение нации смотреть онлайн бесплатно в хорошем качестве


    Вы не можете начинать темы
    Вы не можете отвечать на сообщения
    Вы не можете редактировать свои сообщения
    Вы не можете удалять свои сообщения
    Вы не можете голосовать в опросах
    Вы не можете прикреплять файлы к сообщениям
    Вы можете скачивать файлы