1 сезон

3 сезон

iTunes

1

iTunes

DUB Netflix

iTunes

13

1 сезон

RePack

30

Deluxe

pack

Легкие деньги

ВАЖНО

ИГРА 18+

pack

RePack

MK11

RePack

jed

RePack

fifa19

RePack

RDR2

RePack

NEED FOR SPEED™ PAYBACK

4 сезон

9 сезон

Бесстыжие 9 сезон

Все сериалы

все сериалы на PB.wtf

RePack

FAR CRY 5

Anonymous, доброй ночи, мы не успеваем до 1 числа собрать деньги на оплату серверов, помогите нам пожалуйста в это трудное время. В качестве благодарности мы отключим Вам всю рекламу на сайте (укажите свой ник в строку Ваше имя)!

×
  
Magnet ссылка

Чистое сердце, или Киллеры на колёсах / Tiszta szívvel (Аттила Тилль) [2016, боевик, драма, комедия, DVDRip] MVO [GreenРай Studio] piratbit.org

Чистое сердце, или Киллеры на колёсах через торрент piratbit.org

Размер: 1.36 GB | Добавлен: 4 года назад | Торрент скачан:363 раза
Скачать  

14-06-2017 21:34 Чистое сердце, или Киллеры на колёсах Скачать торрент  

Чистое сердце, или Киллеры на колёсах / Tiszta szívvel
Год выпуска: 2016
Страна: Венгрия
Жанр: боевик, драма, комедия
Продолжительность: 01:22:00
Перевод: Любительский (многоголосый) - [GreenРай Studio]
Субтитры: отсутствуют

Режиссер: Аттила Тилль

rating

В ролях:

Сабольч Туроци, Адам Фекете, Моника Бальшаи, Лидия Даниш, Душан Витанович, Бьорн Фрайберг

Описание:

Золи и Барба – подростки-инвалиды, живущие в специнтернате. Условия там вполне комфортабельные, никакой чернухи, но радостей и развлечений всё равно немного. Как и надежды на излечение: отец, бросивший Золи много лет назад, даже готов оплатить дорогую операцию в Германии, и она, конечно, продлит существование, вот только полное выздоровление всё равно невозможно. И какой тогда смысл жить? Всё радикально меняется после встречи ребят с легендарным убийцей Рупасовым, только что откинувшемся из тюрьмы. Рупасов – тоже инвалид, что не мешает ему жить полной жизнью. Попутно отнимая жизни у других плохих парней...

Качество: DVDRip
Формат: AVI
Видео кодек: XviD
Аудио кодек: MP3

Видео: AVI ,1 646 Кбит/с, 720х304, 25 fps
Аудио#1: Русский (MP3, 48 kHz, 2 ch, 320 Кбит/с)

скриншот   скриншот   скриншот  

Общее
Полное имя : D:\Tiszta.szivvel.2015.P.DVDRip.1400MB.GreenРай Studio.avi
Формат : AVI
Формат/Информация : Audio Video Interleave
Размер файла : 1,36 Гбайт
Продолжительность : 1 ч. 38 м.
Общий поток : 1976 Кбит/сек
Программа кодирования : VirtualDubMod 1.5.10.2 (build 2540/release)
Библиотека кодирования : VirtualDubMod build 2540/release

Видео
Идентификатор : 0
Формат : MPEG-4 Visual
Профиль формата : Advanced Simple@L5
Параметр BVOP формата : 2
Параметр QPel формата : Нет
Параметр GMC формата : Без точки перехода
Параметр матрицы формата : Default (MPEG)
Идентификатор кодека : XVID
Идентификатор кодека/Подсказка : XviD
Продолжительность : 1 ч. 38 м.
Битрейт : 1646 Кбит/сек
Ширина : 720 пикселей
Высота : 304 пикселя
Соотношение сторон : 2,35:1
Частота кадров : 25,000 кадров/сек
Цветовое пространство : YUV
Субдискретизация насыщенности : 4:2:0
Битовая глубина : 8 бит
Тип развёртки : Прогрессивная
Метод сжатия : С потерями
Бит/(Пиксели*Кадры) : 0.301
Размер потока : 1,14 Гбайт (83%)
Библиотека кодирования : XviD 1.2.1 (UTC 2008-12-04)

Аудио
Идентификатор : 1
Формат : MPEG Audio
Версия формата : Version 1
Профиль формата : Layer 3
Режим : Joint stereo
Идентификатор кодека : 55
Идентификатор кодека/Подсказка : MP3
Продолжительность : 1 ч. 38 м.
Вид битрейта : Постоянный
Битрейт : 320 Кбит/сек
Каналы : 2 канала
Частота : 48,0 КГц
Метод сжатия : С потерями
Размер потока : 226 Мбайт (16%)
Выравнивание : Соединение по промежуткам
Продолжительность промежутка : 40 мс. (1,00 видеокадр)
Время предзагрузки промежутка : 504 мс.

piratbit.org



Скачать Чистое сердце, или Киллеры на колёсах через торрент http://s009.radikal.ru/i310/1706/b5/0a990669021b.jpg Скачать фильм Чистое сердце, или Киллеры на колёсах через торрент бесплантно в хорошем качестве Описание: Золи и Барба – подростки-инвалиды, живущие в специнтернате. Условия там вполне комфортабельные, никакой чернухи, но радостей и ... 8.5 10 12
Торрент: Зарегистрирован [2017-06-14 21:34] · скачан: 363 раз
Статус: T временная
Размер: 1.36 GB
Как cкачать? Как скачать Чистое сердце, или Киллеры на колёсах через торрент | UTorrent

28-11-2019 20:33  

Отключить всю рекламу на сайте

18-06-2017 09:20 Чистое сердце, или Киллеры на колёсах Скачать торрент  

как фильм то?piratbit.org



    Дорогой пользователь! Огромная просьба, поблагодарите релизера, оцените раздачу и оставьте свои комментарий, если Вы скачали Чистое сердце, или Киллеры на колёсах через торрент бесплатно! Внесите свою лепту в развитие PiratBit!
    Комментировать посты могут только пользователи прошедшие не сложную регистрацию
    Показать сообщения:    

    Чистое сердце, или Киллеры на колёсах через торрент
    Скачать бесплатно Чистое сердце, или Киллеры на колёсах
    Чистое сердце, или Киллеры на колёсах скачать торрент
    Чистое сердце, или Киллеры на колёсах смотреть онлайн
    Cкачать фильм Чистое сердце, или Киллеры на колёсах бесплатно
    Чистое сердце, или Киллеры на колёсах скачать торрент в хорошем качестве
    Чистое сердце, или Киллеры на колёсах смотреть онлайн бесплатно в хорошем качестве


    Вы не можете начинать темы
    Вы не можете отвечать на сообщения
    Вы не можете редактировать свои сообщения
    Вы не можете удалять свои сообщения
    Вы не можете голосовать в опросах
    Вы не можете прикреплять файлы к сообщениям
    Вы можете скачивать файлы