1 сезон

3 сезон

iTunes

1

iTunes

DUB Netflix

iTunes

13

1 сезон

RePack

30

Deluxe

pack

Легкие деньги

ВАЖНО

ИГРА 18+

pack

RePack

MK11

RePack

jed

RePack

fifa19

RePack

RDR2

RePack

NEED FOR SPEED™ PAYBACK

4 сезон

9 сезон

Бесстыжие 9 сезон

Все сериалы

все сериалы на PB.wtf

RePack

FAR CRY 5

Anonymous, доброй ночи, мы не успеваем до 1 числа собрать деньги на оплату серверов, помогите нам пожалуйста в это трудное время. В качестве благодарности мы отключим Вам всю рекламу на сайте (укажите свой ник в строку Ваше имя)!

×
  
Magnet ссылка

Жмот / Radin ! (Фред Кавайе) [2016, комедия, BDRip] Дубляж - [Лицензия / iTunes] piratbit.org

Жмот через торрент piratbit.org

Размер: 1.42 GB | Добавлен: 3 года 11 мес. назад | Торрент скачан:470 раз
Скачать  

28-06-2017 20:49 Жмот Скачать торрент  

Жмот / Radin !
««Меняю деньги на любовь...»»

Год выпуска: 2016
Страна: Франция
Жанр: комедия
Продолжительность: 01:30:11
Перевод: Дубляж - [Лицензия / iTunes]
Режиссер: Фред Кавайе
В ролях:

Дэни Бун (François Gautier), Лоранс Арне (Valérie), Ноэми Шмидт (Laura), Патрик Ридремон (Cédric), Кристоф Канар (Gilles), Кристоф Фавр (Demeester), Ивонн Граделе (Convive réception charitative), Карина Маримон (Carole), Изабель Зьенталь, Одри Родс-Грег (Laura (8 ans)), Марк де Панда (Ouvreur), Пьер Диот
Описание:
Франсуа Готье - виртуозный скрипач. Но за талант, как водится, надо платить. У музыканта серьезный недостаток: он невероятно скуп. Мания экономить превращает его в одержимого, а любой платеж ввергает в панический ужас. Но однажды его жизнь резко меняется.
Рейтинг:

Качество: BDRip
Формат: AVI
Видео: XviD, 720x304 (2.35:1), 1771 kbps, 24 fps, 0,337 bpp
Аудио: AC3 / 5.1 / 48 kHz / 384 kbps /
Релиз от: MegaPeer
General
Complete name : E:\Radin.2016.BDRip1.42Gb.MegaPeer.avi
Format : AVI
Format/Info : Audio Video Interleave
File size : 1.42 GiB
Duration : 1 h 30 min
Overall bit rate : 2 254 kb/s
Writing application : VirtualDubMod 1.5.10.2 (build 2540/release)
Writing library : VirtualDubMod build 2540/release

Video
ID : 0
Format : MPEG-4 Visual
Format profile : Advanced Simple@L5
Format settings, BVOP : 1
Format settings, QPel : No
Format settings, GMC : No warppoints
Format settings, Matrix : Custom
Codec ID : XVID
Codec ID/Hint : XviD
Duration : 1 h 30 min
Bit rate : 1 772 kb/s
Width : 720 pixels
Height : 304 pixels
Display aspect ratio : 2.35:1
Frame rate : 24.000 FPS
Color space : YUV
Chroma subsampling : 4:2:0
Bit depth : 8 bits
Scan type : Progressive
Compression mode : Lossy
Bits/(Pixel*Frame) : 0.337
Stream size : 1.12 GiB (79%)
Writing library : XviD 73

Audio
ID : 1
Format : AC-3
Format/Info : Audio Coding 3
Mode extension : CM (complete main)
Format settings, Endianness : Big
Codec ID : 2000
Duration : 1 h 30 min
Bit rate mode : Constant
Bit rate : 384 kb/s
Channel(s) : 6 channels
Channel positions : Front: L C R, Side: L R, LFE
Sampling rate : 48.0 kHz
Frame rate : 31.250 FPS (1536 spf)
Compression mode : Lossy
Stream size : 248 MiB (17%)
Alignment : Split accross interleaves
piratbit.org



Скачать Жмот через торрент http://i94.fastpic.ru/big/2017/0629/26/6ef0945f191acb68e70676f4c3f45426.png Скачать фильм Жмот через торрент бесплантно в хорошем качестве Описание: Франсуа Готье - виртуозный скрипач. Но за талант, как водится, надо платить. У музыканта серьезный недостаток: он невероятно ... 9.3 10 10
Торрент: Зарегистрирован [2017-06-28 20:49] · скачан: 470 раз
Статус: √ проверено
Размер: 1.42 GB
Как cкачать? Как скачать Жмот через торрент | UTorrent

% Раздел Тема Автор DL S | L
Фильмы 2016 [DVDrip, WEB-DLRip, HDrip] (DUB, MVO) [ 1.42 GB ] Жмот / Radin ! [2016 BDRip] - Twi7ter Скачать
1 | 0
Фильмы (Blu-ray, BD-Remux, HDDVD) [ 15.53 GB ] Жмот / Radin ! [2016 BD Remux 1080p] bober100 Скачать
1 | 0
R.G. Resident & PiratVoice - Фильмы, Видео [ 1.52 GB ] Жмот / Radin ! [2016 BDRip-AVC от R.G. Resident] - -Lexx- Скачать
1 | 0
Фильмы [HD 720p, 1080p] (Хороший звук DUB, MVO) [ 5.96 GB ] Жмот / Radin ! [2016 BDRip 1080p] - -Lexx- Скачать
1 | 0

28-11-2019 20:33  

Отключить всю рекламу на сайте

28-05-2019 18:13 Жмот Скачать торрент  

Ниче кино, смотреть можно!piratbit.org



    Дорогой пользователь! Огромная просьба, поблагодарите релизера, оцените раздачу и оставьте свои комментарий, если Вы скачали Жмот через торрент бесплатно! Внесите свою лепту в развитие PiratBit!
    Комментировать посты могут только пользователи прошедшие не сложную регистрацию
    Показать сообщения:    

    Жмот через торрент
    Скачать бесплатно Жмот
    Жмот скачать торрент
    Жмот смотреть онлайн
    Cкачать фильм Жмот бесплатно
    Жмот скачать торрент в хорошем качестве
    Жмот смотреть онлайн бесплатно в хорошем качестве


    Вы не можете начинать темы
    Вы не можете отвечать на сообщения
    Вы не можете редактировать свои сообщения
    Вы не можете удалять свои сообщения
    Вы не можете голосовать в опросах
    Вы не можете прикреплять файлы к сообщениям
    Вы можете скачивать файлы