1 сезон

3 сезон

iTunes

1

iTunes

DUB Netflix

iTunes

13

1 сезон

RePack

30

Deluxe

pack

Легкие деньги

ВАЖНО

ИГРА 18+

pack

RePack

MK11

RePack

jed

RePack

fifa19

RePack

RDR2

RePack

NEED FOR SPEED™ PAYBACK

4 сезон

9 сезон

Бесстыжие 9 сезон

Все сериалы

все сериалы на PB.wtf

RePack

FAR CRY 5

Anonymous, добрый день, мы не успеваем до 1 числа собрать деньги на оплату серверов, помогите нам пожалуйста в это трудное время. В качестве благодарности мы отключим Вам всю рекламу на сайте (укажите свой ник в строку Ваше имя)!

×
  
Magnet ссылка

Возьми меня штурмом / Raid dingue (Дани Бун) [2016, Комедия, боевик, BDRip-AVC] DUB [iTunes] piratbit.org

Возьми меня штурмом через торрент piratbit.org

Размер: 1.76 GB | Добавлен: 3 года 11 мес. назад | Торрент скачан:347 раз
Скачать  

04-07-2017 13:51 Возьми меня штурмом Скачать торрент  

Возьми меня штурмом / Raid dingue
Год выпуска: 2016
Страна: Франция, Бельгия
Жанр: Комедия, боевик
Продолжительность: 01:46:23
Перевод: Дубляж [iTunes]
Субтитры: Английские, французские

Режиссер: Дани Бун

rating

В ролях:

Алис Поль, Дани Бун, Мишель Блан, Иван Атталь, Сабин Азема, Патрик Милле, Франсуа Леванталь, Энн Маривин, Флоран Пейр, Ален Дуте

Описание:

Принято считать, что в спецназе работают самые сильные, ловкие и хладнокровные люди. Эта работа не для слабаков и необходимо иметь железные нервы и выдержку. Однако, бывают исключения из правил даже в такой, казалось бы, сугубо мужской работе. В фильме показан элитный батально спецназа, в который пришла работать молодая и очаровательная девушка. Она совершенно не вписывается в стандарт спецназа, любит шутить и пить кофе. Естественно, появление такой красотки в батальоне приводит всех мужчин в изумление. Все стали проявлять знаки внимания и стараться всячески ухаживать за хрупкой девушкой. Нашлись и те, кто отнесся скептически к появлению девушки в батальоне. Начальник батальона считает, что от женщин одни неприятности и что им нечего делать в таком месте как армия и спецназ. Мужчина намерен во что бы то ни стало избавиться от девушки в своем батальоне. Между мужчиной и девушкой начинается настоящая война, в которой каждый будет отстаивать свою точку зрения. Девушка решительно настроена доказать мужчине, что она имеет право на ровне с мужчинами быть в батальоне. Она хочет продемонстрировать мужчине все свои навыки. Герои даже представить не могут, чем в итоге закончится их противостояние.

Качество: BDRip-AVC
Формат: MKV
Видео кодек: H.264
Аудио кодек: AC3

Видео: 1024x426 (2.40:1), 23.976 fps, x264 ~1982 kbps avg, 0.190 bit/pixel
Аудио#1: 48 kHz, AC3 Dolby Digital, 3/2 (L,C,R,l,r) + LFE ch, ~384.00 kbps avg | RUS (iTunes)
скриншот   скриншот   скриншот   скриншот   скриншот  

Общее
Уникальный идентификатор : 211141847937871732166444697312301779180 (0x9ED870D4B57AF66E880240483FA988EC)
Полное имя : D:Raid.Dingue.2016.BDRip(AVC).OlLanDGroup.mkv
Формат : Matroska
Версия формата : Version 2
Размер файла : 1,76 Гбайт
Продолжительность : 1 ч. 46 м.
Общий поток : 2364 Кбит/сек
Название фильма : Raid.Dingue.2016 #TorpedoUK#
Дата кодирования : UTC 2017-07-04 12:29:18
Программа кодирования : mkvmerge v7.8.0 ('River Man') 32bit built on Apr 3 2015 12:11:22
Библиотека кодирования : libebml v1.3.1 + libmatroska v1.4.2

Видео
Идентификатор : 1
Формат : AVC
Формат/Информация : Advanced Video Codec
Профиль формата : High@L4.1
Параметр CABAC формата : Да
Параметр ReFrames формата : 10 кадров
Идентификатор кодека : V_MPEG4/ISO/AVC
Продолжительность : 1 ч. 46 м.
Битрейт : 1982 Кбит/сек
Ширина : 1024 пикселя
Высота : 426 пикселей
Соотношение сторон : 2,40:1
Режим частоты кадров : Постоянный
Частота кадров : 23,976 (24000/1001) кадра/сек
Цветовое пространство : YUV
Субдискретизация насыщенности : 4:2:0
Битовая глубина : 8 бит
Тип развёртки : Прогрессивная
Бит/(Пиксели*Кадры) : 0.190
Размер потока : 1,44 Гбайт (82%)
Библиотека кодирования : x264 core 146 r2538 121396c
Настройки программы : cabac=1 / ref=10 / deblock=1:-3:-3 / analyse=0x3:0x133 / me=umh / subme=11 / psy=1 / psy_rd=1.00:0.07 / mixed_ref=1 / me_range=48 / chroma_me=1 / trellis=2 / 8x8dct=1 / cqm=0 / deadzone=21,11 / fast_pskip=0 / chroma_qp_offset=-3 / threads=6 / lookahead_threads=1 / sliced_threads=0 / nr=0 / decimate=0 / interlaced=0 / bluray_compat=0 / constrained_intra=0 / bframes=10 / b_pyramid=2 / b_adapt=2 / b_bias=0 / direct=3 / weightb=1 / open_gop=0 / weightp=2 / keyint=240 / keyint_min=23 / scenecut=40 / intra_refresh=0 / rc_lookahead=40 / rc=2pass / mbtree=0 / bitrate=1982 / ratetol=1.0 / qcomp=0.60 / qpmin=0 / qpmax=69 / qpstep=4 / cplxblur=20.0 / qblur=0.5 / vbv_maxrate=50000 / vbv_bufsize=62500 / nal_hrd=none / filler=0 / ip_ratio=1.40 / pb_ratio=1.30 / aq=1:1.00
Язык : English
Default : Да
Forced : Нет

Аудио
Идентификатор : 2
Формат : AC-3
Формат/Информация : Audio Coding 3
Расширение режима : CM (complete main)
Параметр Endianness формата : Big
Идентификатор кодека : A_AC3
Продолжительность : 1 ч. 46 м.
Вид битрейта : Постоянный
Битрейт : 384 Кбит/сек
Каналы : 6 каналов
Расположение каналов : Front: L C R, Side: L R, LFE
Частота : 48,0 КГц
Частота кадров : 31,250 кадров/сек (1536 spf)
Битовая глубина : 16 бит
Метод сжатия : С потерями
Размер потока : 292 Мбайт (16%)
Заголовок : iTunes
Язык : Russian
Default : Да
Forced : Нет

Текст #1
Идентификатор : 3
Формат : UTF-8
Идентификатор кодека : S_TEXT/UTF8
Идентификатор кодека/Информация : UTF-8 Plain Text
Заголовок : Full
Язык : English
Default : Нет
Forced : Нет

Текст #2
Идентификатор : 4
Формат : UTF-8
Идентификатор кодека : S_TEXT/UTF8
Идентификатор кодека/Информация : UTF-8 Plain Text
Заголовок : Full
Язык : French
Default : Нет
Forced : Нет

Меню
00:00:00.000 : en:Chapter 1
00:07:39.792 : en:Chapter 2
00:17:45.647 : en:Chapter 3
00:27:53.838 : en:Chapter 4
00:37:35.044 : en:Chapter 5
00:46:48.931 : en:Chapter 6
00:57:19.936 : en:Chapter 7
01:06:35.992 : en:Chapter 8
01:16:37.593 : en:Chapter 9
01:24:14.716 : en:Chapter 10
01:33:08.791 : en:Chapter 11
01:42:39.278 : en:Chapter 12

piratbit.org



Скачать Возьми меня штурмом через торрент http://lostpix.com/img/2017-07/04/4odcze1pb437otd9r7s5h7x94.jpg Скачать фильм Возьми меня штурмом через торрент бесплантно в хорошем качестве Описание: Принято считать, что в спецназе работают самые сильные, ловкие и хладнокровные люди. Эта работа не для слабаков и необходимо ... 9.4 10 10
Торрент: Зарегистрирован [2017-07-04 13:51] · скачан: 347 раз
Статус: √ проверено
Размер: 1.76 GB
Как cкачать? Как скачать Возьми меня штурмом через торрент | UTorrent

% Раздел Тема Автор DL S | L
Фильмы 2016 [DVDrip, WEB-DLRip, HDrip] (DUB, MVO) [ 1.37 GB ] Возьми меня штурмом / Raid dingue [2016 HDRip] bober100 Скачать
1 | 0
Фильмы 2016 [DVDrip, WEB-DLRip, HDrip] (DUB, MVO) [ 1.42 GB ] Возьми меня штурмом / Raid dingue [2016 BDRip] - Twi7ter Скачать
1 | 0
Фильмы 2016 [DVDrip, WEB-DLRip, HDrip] (DUB, MVO) [ 747 MB ] Возьми меня штурмом / Raid dingue [2016 HDRip-AVC] bober100 Скачать
1 | 0
Фильмы [HD 720p, 1080p] (Хороший звук DUB, MVO) [ 13.37 GB ] Возьми меня штурмом / Raid dingue [2016 BDRip 1080p] bober100 Скачать
1 | 0
Фильмы 2016 [DVDrip, WEB-DLRip, HDrip] (DUB, MVO) [ 701 MB ] Возьми меня штурмом / Raid dingue [2016 HDRip] Sherif Скачать
1 | 0
# Фильмы [HD 720p, 1080p] (Хороший звук DUB, MVO) [ 4.65 GB ] Возьми меня штурмом / Raid dingue [2016 BDRip 720p] bober100 Скачать
1 | 0

28-11-2019 20:33  

Отключить всю рекламу на сайте

    Дорогой пользователь! Огромная просьба, поблагодарите релизера, оцените раздачу и оставьте свои комментарий, если Вы скачали Возьми меня штурмом через торрент бесплатно! Внесите свою лепту в развитие PiratBit!
    Комментировать посты могут только пользователи прошедшие не сложную регистрацию
    Показать сообщения:    

    Возьми меня штурмом через торрент
    Скачать бесплатно Возьми меня штурмом
    Возьми меня штурмом скачать торрент
    Возьми меня штурмом смотреть онлайн
    Cкачать фильм Возьми меня штурмом бесплатно
    Возьми меня штурмом скачать торрент в хорошем качестве
    Возьми меня штурмом смотреть онлайн бесплатно в хорошем качестве


    Вы не можете начинать темы
    Вы не можете отвечать на сообщения
    Вы не можете редактировать свои сообщения
    Вы не можете удалять свои сообщения
    Вы не можете голосовать в опросах
    Вы не можете прикреплять файлы к сообщениям
    Вы можете скачивать файлы