Доктор Стрэндж

Лицензия

Добыча

Дубляж

Уэнсдэй

1 сезон

Тор

Дубляж

В эфире

Дубляж

Там, где раки поют

MVO

Властелин колец

1 сезон

Deluxe

pack

Рекомендуем

30

Пиратка

ВАЖНО

ВАЖНО

Ghostwire

Пиратка

jed

RePack

nioh2

RePack

RDR2

RePack

NEED FOR SPEED™ PAYBACK

RePack

скачать торрент

Кинопоиск HD

Острые козырьки 6 сезон

6 сезон

FAR CRY 6

RePack

скачать торрент

Лицензия

скачать торрент

MVO

1

1 сезон

скачать торрент

1 сезон

скачать торрент

Лицензия

  

Линия смерти / Death Line (Гари Шерман) [1972, ужасы, триллер, BDRip 720p ] VO

Линия смерти через торрент piratbit.org

Размер: 3.98 GB | Добавлен: 5 лет 5 мес. назад | Торрент скачан:35 раз
Смотреть онлайн | Скачать   

06-07-2017 10:16 Линия смерти Скачать торрент  

Название: Линия смерти
Оригинальное название: Death Line
Год выпуска: 1972
Страна: Великобритания
Жанр: ужасы, триллер
Продолжительность: 01:27:28
Перевод: любительский одноголосый

Режиссер: Гари Шерман
В ролях: Дональд Плезенс, Кристофер Ли, Норман Россингтон, Дэвид Лэдд, Шэрон Гёрни, Хью Армстронг, Джун Тернер, Клайв Свифт, Джеймс Коссинс, Хезер Стоуни, Хью Диксон

Описание: При строительстве одной из линий лондонского метро еще в конце девятнадцатого века произошел обвал, и часть рабочих, среди которых были и женщины, оказалась под завалом. После этого инцидента строительная компания обанкротилась, и недостроенную ветку с погребёнными под завалом телами забросили. Однако часть людей всё-таки выжила, и их потомки в изрядно одичавшем виде дожили до наших дней, питаясь... запоздавшими посетителями метро!...



Качество: BDRip 720p
Формат: MKV
Видео: MPEG-4 AVC, 6141 Kбит/с, 1280x690
Аудио 1: русский, AC3, 192 kbps, 2 ch, 48 kHz [любительский одноголосый, RussianGuy27, с ненормативной лексикой]
Аудио 2: английский, AC3, 192 kbps, 2 ch, 48 kHz [оригинал]
Субтитры: английские
Имеются неименованные главы/чаптеры.
Общее
Уникальный идентификатор : 182834180726823528849866658860798281483 (0x898C9515041CDA6F8940C0E136F7870B)
Полное имя : D:\Video\Линия смерти.1972.BDRip.720p by msltel.mkv
Формат : Matroska
Версия формата : Version 4 / Version 2
Размер файла : 3,98 Гбайт
Продолжительность : 1 ч. 27 м.
Общий поток : 6517 Кбит/сек
Название фильма : Rip by msltel
Дата кодирования : UTC 2017-07-05 12:41:52
Программа кодирования : mkvmerge v8.2.0 ('World of Adventure') 64bit
Библиотека кодирования : libebml v1.3.1 + libmatroska v1.4.2

Видео
Идентификатор : 1
Формат : AVC
Формат/Информация : Advanced Video Codec
Профиль формата : High@L4.1
Параметр CABAC формата : Да
Параметр ReFrames формата : 9 кадров
Идентификатор кодека : V_MPEG4/ISO/AVC
Продолжительность : 1 ч. 27 м.
Битрейт : 6141 Кбит/сек
Ширина : 1280 пикселей
Высота : 690 пикселей
Соотношение сторон : 1,85:1
Режим частоты кадров : Постоянный
Частота кадров : 23,976 (24000/1001) кадра/сек
Цветовое пространство : YUV
Субдискретизация насыщенности : 4:2:0
Битовая глубина : 8 бит
Тип развёртки : Прогрессивная
Бит/(Пиксели*Кадры) : 0.290
Размер потока : 3,75 Гбайт (94%)
Библиотека кодирования : x264 core 146 r2538 121396c
Настройки программы : cabac=1 / ref=9 / deblock=1:-3:-2 / analyse=0x3:0x113 / me=umh / subme=11 / psy=1 / psy_rd=1.00:0.15 / mixed_ref=1 / me_range=32 / chroma_me=1 / trellis=2 / 8x8dct=1 / cqm=0 / deadzone=21,11 / fast_pskip=0 / chroma_qp_offset=-3 / threads=6 / lookahead_threads=1 / sliced_threads=0 / nr=0 / decimate=1 / interlaced=0 / bluray_compat=0 / constrained_intra=0 / bframes=12 / b_pyramid=2 / b_adapt=2 / b_bias=0 / direct=1 / weightb=1 / open_gop=0 / weightp=2 / keyint=230 / keyint_min=23 / scenecut=40 / intra_refresh=0 / rc_lookahead=40 / rc=crf / mbtree=0 / crf=18.6 / qcomp=0.60 / qpmin=0 / qpmax=69 / qpstep=4 / vbv_maxrate=62500 / vbv_bufsize=78125 / crf_max=0.0 / nal_hrd=none / filler=0 / ip_ratio=1.40 / pb_ratio=1.30 / aq=1:1.00
Язык : English
Default : Да
Forced : Нет

Аудио #1
Идентификатор : 2
Формат : AC-3
Формат/Информация : Audio Coding 3
Параметр Endianness формата : Big
Идентификатор кодека : A_AC3
Продолжительность : 1 ч. 27 м.
Вид битрейта : Постоянный
Битрейт : 192 Кбит/сек
Каналы : 2 канала
Расположение каналов : Front: L R
Частота : 48,0 КГц
Частота кадров : 31,250 кадров/сек (1536 spf)
Битовая глубина : 16 бит
Метод сжатия : С потерями
Размер потока : 120 Мбайт (3%)
Заголовок : любительский одноголосый, RussianGuy27, с ненормативонй лексикой
Язык : Russian
ServiceKind/String : Complete Main
Default : Да
Forced : Нет

Аудио #2
Идентификатор : 3
Формат : AC-3
Формат/Информация : Audio Coding 3
Параметр Endianness формата : Big
Идентификатор кодека : A_AC3
Продолжительность : 1 ч. 27 м.
Вид битрейта : Постоянный
Битрейт : 192 Кбит/сек
Каналы : 2 канала
Расположение каналов : Front: L R
Частота : 48,0 КГц
Частота кадров : 31,250 кадров/сек (1536 spf)
Битовая глубина : 16 бит
Метод сжатия : С потерями
Размер потока : 120 Мбайт (3%)
Заголовок : original
Язык : English
ServiceKind/String : Complete Main
Default : Нет
Forced : Нет

Текст
Идентификатор : 4
Формат : UTF-8
Идентификатор кодека : S_TEXT/UTF8
Идентификатор кодека/Информация : UTF-8 Plain Text
Продолжительность : 1 ч. 26 м.
Битрейт : 44 бит/сек
ElementCount : 990
Размер потока : 27,9 Кбайт (0%)
Заголовок : английские
Язык : English
Default : Нет
Forced : Нет

Меню
00:00:00.000 : en:Chapter 01
00:05:43.885 : en:Chapter 02
00:10:27.668 : en:Chapter 03
00:14:54.351 : en:Chapter 04
00:21:22.281 : en:Chapter 05
00:23:26.113 : en:Chapter 06
00:31:34.434 : en:Chapter 07
00:33:12.031 : en:Chapter 08
00:38:43.029 : en:Chapter 09
00:43:52.588 : en:Chapter 10
00:47:52.160 : en:Chapter 11
00:52:57.007 : en:Chapter 12
00:56:03.068 : en:Chapter 13
01:03:01.152 : en:Chapter 14
01:09:51.520 : en:Chapter 15
01:15:35.489 : en:Chapter 16
01:21:30.719 : en:Chapter 17
01:26:14.002 : en:Chapter 18



Скачать Линия смерти через торрент http://hostpic.gq/img/2017-07/06/3r8m5ndbdnhr7sfi8rog20stn.jpg Скачать, смотреть онлайн Линия смерти бесплантно в хорошем качестве Описание: При строительстве одной из линий лондонского метро еще в конце девятнадцатого века произошел обвал, и часть рабочих, среди ... 10 10 3
Торрент: Зарегистрирован [2017-07-06 10:16] · скачан: 35 раз
Статус: √ проверено
Размер: 3.98 GB
Как cкачать? Как скачать Линия смерти через торрент | UTorrent

% Раздел Тема Автор DL S | L
Фильмы [HD 720p, 1080p] (Звук Cam, VO, DVO) [ 11.5 GB ] Линия смерти / Death Line | | 1080p msltel Скачать
1 | 0

28-11-2019 20:33  


Отключить вcю реклaмy на сайте, в т.ч. и в плеере онлайн просмотра!

    Дорогой пользователь! Огромная просьба, поблагодарите релизера, оцените раздачу и оставьте свои комментарий, если Вы скачали Линия смерти через торрент бесплатно!!
    Комментировать посты могут только пользователи прошедшие не сложную регистрацию
    Показать сообщения:    


    Линия смерти через торрент
    Скачать бесплатно Линия смерти
    Линия смерти скачать торрент
    Линия смерти смотреть онлайн
    Cкачать фильм Линия смерти бесплатно
    Линия смерти скачать торрент в хорошем качестве
    Линия смерти смотреть онлайн бесплатно в хорошем качестве
    Вы не можете начинать темы
    Вы не можете отвечать на сообщения
    Вы не можете редактировать свои сообщения
    Вы не можете удалять свои сообщения
    Вы не можете голосовать в опросах
    Вы не можете прикреплять файлы к сообщениям
    Вы можете скачивать файлы
    Линия смерти / Death Line [1972, ужасы, триллер, BDRip 720p ] VO смотреть онлайн, скачать торрент picoco.icu